&title=Einherjar Joker
&artist=DJ Genki
&first=0.05
&lv_5=14+
&des_5=Rich(●—●)も
&inote_5=
(222){4},,,,{32}E1,
D1,{4},,,{16},,,{1}E7,
{32}B1,B2,{16}E3,,,,,,,,,,,,,,,{1}E1,
{12}B5,B6,{24},E7,,,,,,,,,,,,,,,,,,,{2}E4,
E2,
{12}E5,E4,E3,E2,,,,,,,,,{2}C,
{8}6bh[8:1],5bh[8:1],4bh[8:1],3b,
{1}2bqq6[1:1],
{2}5,7,
{1}7bpp3b[1:1],
1h[1:2],
5bh[1:1],
,6bh[1:1]/2h[1:1],
{16},,,,,,,,4,5,4,5,3,6,{8}3,
2b/7b,2b/7b,,8b/3b,{4}8b/3b,{8}5b/1b>2-5<7-3[4:3],1b/5b,
,,,,,,,,8bx/3bx,
8bx/3bx,,6b/5b,{4}6b/5b,{8}4b/8b-2-5>3-7b[4:3],8b/4b,
,,,,,,,,1bx/7bx,
2bx/6bx,,2b/8b,{4}3b/7b,{8}1b/5b,{128}2bp8b[8:5],6bp4[128:79],{1},{16},{64},,,{16}8bx/4bx,
1bx,{8}5bx,,2b/6b,{4}3b/5b,{8}8b/1b,7b/2b,
,5b/4b,{4}6b/3b,{8}5/4,{16}3,4,{8}2,{16}6,5,
{4}7,{8}2,6,{4}2,8/2,
7/3,{8}5/3,5,{4}5/3,1/C,
7/1,{8}7,3,{4}7,5/7,
2/6,{8}4/6,4,{4}4/6,7/Cf,
{16}1,2,3,4,7,6,5,4,8,1,2,3,{4}8bh[8:1],
{16}4,3,2,1,5,6,7,8,2,3,4,5,{4}8bh[8:1],
{16}3,4,3,4,{4}1b,{16}6,5,6,5,{4}8b,
{8}3b,{16}6,5,{8}7b,{16}3,4,{8}2b,{16}6,5,{8}7b,{16}8,1h[16:21],
{1}7b>8>1>2>3<4<5<6[1:1],
{4},,1-5b[32:3],1b/8b,
4/6h[8:1],{8}1/6h[8:1],2,{4}3/6h[8:1],3/6h[8:1],
{8}1/6h[8:1],2,{4}3/6h[8:1],6h[8:1]/4-8[8:1],4b/6h[8:1],
5/2h[8:1],{8}8/2h[8:1],7,{4}6/3h[8:1],6/3h[8:1],
{8}8/3h[8:1],7,{4}6/3h[8:1],3h[8:1]/5-1[8:1],5b/3h[8:1],
{8}8/4,7,6/3,2,1,5,7,3,
7-4[8:1],7,2,2,{4}8-3[8:1]*-5[8:1],8,
{8}2-5[8:1],2,6,6,3-8[8:1],3,5,5,
{16}2b/6b,,,7b/3b,,,{8}1b,7/2,7/2,{4}8b/1b,
{8}2-5[8:1],7,2,7,1,8-4[8:1],{4}1,
{8}2-6[8:1],2,7<4[8:1],7,{2}1w5[8:1],
{8}7-4[8:1],2,7,2,8,1-5[8:1],{4}8,
{8}7-3[8:1],7,2>5[8:1],2,{2}8w4[8:1],
{8}2-6[8:1],2,1,1,8-4[8:1],8,{4}3,
{8}2-6[8:1],2,5,5,7-3[8:1],7,{4}2,
{8}1/5,1/5,,7/4,{4}7/4,{8}8/1,8/1,
5/3,5/3,7/8,8/7,{32}1,2,3,4,5,6,7,8,{4}1b/5b,
2/5,{16}3,4,{8}3,2,2/1,{16}8,1,{8}8,
7-3[8:1],7,2,2,{4}1<6[8:1],3/1,
2h[8:1]/5h[8:1],{16}3,4,{8}3,2,1,6/1,7,
8-4[8:1],8,2,2,{4}3-8[8:1]*-7[8:1],3,
{8}4/6,{16}3,5,{8}3,6,7/2,7,{16}1,8,{8}1,
2-6[8:1],2,7,7,{4}8>3[8:1],6/8,
{8}7/4,{16}7,4,{8}6,3,2/8,3,4/8,7,
6-2[8:1],6,1,1,{4}3-8[8:1]*-7[8:1],3,
{8}1,1,6,6,{16}1,2,3,4,{8}6/5,6,
2,2,8,8,{16}1,8,7,6,8,7,6,5,
{8}1,1,7h[8:1],5,{16}1,2,3,4,{8}5/6,7,
8,8,6h[8:1],7,{16}5,4,3,2,7,6,5,4,
8,7,8,7,1,6,1,6,2,5,2,5,{4}3b,
{16}1,2,1,2,8,3,8,3,7,4,7,4,{4}6b,
{16}2,1,2,1,{4}4b,{16}7,8,7,8,{4}5b,
{16}1b,2,3,4,5,6,7,8,{32}5,4,3,2,1,8,7,6,5,4,3,2,1,8,7,6,
{2}Cf/5<1[1:1],E4/B3/A3,
1p3[1:1],B2/A2/E3,
3<7[1:1],B1/A1/E2,
7s3[1:1],B3/B4/E4,
3qq8[1:1],B1/E2/B2,
8<5[8:5],C,
{1}2-6[2:3]*qq1[2:3],
{2},,E1f,
E7,
E3,{4}E5,E1/B8,
{2}E7/B6,E2,
E5,{4}E7,B4,
{2}B1/B2/E2h[2:1],C,
B6/B5/E6h[2:1],C,
{16}E3,B3,B4,E5,E1,B1,B2,E3,E7,B7,B8,E1,E5,B5,B6,E7,
E2/D2h[16:1],A2,E3/D3h[16:1],A3,E4/D4h[16:1],A4,E5/D5h[16:1],A5,E6/D6h[16:1],A6,E7/D7h[16:1],A7,E8/D8h[16:1],A8,,,{1}1bxqq6[2:3]`5bxqq2b[2:3],
{16},,,,,,,,,,,,,,,,8,
1,8,1,8,3,8,3,7,2,7,2,7,4,7,4,
6,3,6,3,5,4,5,4,5-1b[8:1],5,5,5,{32}5b,Cf,,,,,,,{8}8/2,
7/3,{16}6,5,6,4,7-3[8:1],,,2,{4}7,
{8}8-4[8:1],1-3b[8:1],8,1,8-5[8:1],1,8,1,
{16}2,5,4,5,3,6,5,6,2,7,8,7,3,8,1,8,
2,3,4,5,1,2,3,4,1/5,2/6,3/7,4/8,5,6,7,8,
5bh[8:1]/1bh[8:1],,,4bh[8:1]/3bh[8:1],,,{8}7b/5bh[8:1],{16}1,8,7,6,5/4,3,2,1,
8bh[8:1]/7bh[8:1],,,6bh[8:1]/5bh[8:1],,,{8}3b/4b,{16}2,1,8,7,3,4,5,6,
{8}2,3,6/4,7,8/1,2,5/4,6/3,
{16}8,1,7,1,6,1,5,1,4-8b[8:1],5,6,7,{4}8b/4b,
1/7,{16}3-7[8:1],4,{8}2/5,3/6-2[8:1],5,6/8,8,
1-5[8:1],8-6b[8:1],1,8,1-4[8:1],8,1,8,
{16}7,5,6,5,{8}8,{16}2,4,3,4,{8}1,{16}8/5,1,2,3,
7,6,5,4,8,7,6,5,8/4,7/3,6/2,5/1,4,3,2,1,
8b/5b-2[8:1],,,7,{8}5,6h[8:1],{16}8,1,2,3,4/5,6,7,8,
1/4-7[8:1],,,2,{8}4,3h[8:1],{16}8,7,6,5,3,2,1,8,
{8}5,6,3/7,2,1/8,7,4/5,3/6,
8b/2b,4b/5b,8b/7b,5b/2b-5[8:1],,2b/6b,{4}8bh[4:1],
{32},2,3,4,5,6,7,8,1b,2,3,4,5,6,7,8,1bq6[8:1]*p4[8:1],2,3,4,5,6,7,8,1,Cf,,,,,,,8b,
7,6,5,4,3,2,1,8b,7,6,5,4,3,2,1,8b,7,6,5,4,3,2,1,8,Cf,,,,,,,{16}8,
7,{8}8,1/6,{16}8,7,{8}8,1/6,{16}8,7,{8}8,
{16}2,6,2,6,3,7,3,7,1,2,3,4,8,7,6,5,
2,1,{8}2,8/3,{16}2,1,{8}2,8/3,{16}2,1,{8}2,
3/7,{16}5,3,6,2,7,2,8,7,6,5,1,2,3,4,
6,5,{8}6,7/4,{16}5,4,{8}5,2/6,{16}3,4,{8}3,
6/2,{16}8,1,7,2,7,2,8,7,6,5,1,2,3,4,
8,7,{8}8,6/1,{16}3,4,{8}3,4/8,{16}5,6,{8}5,
{16}8,1,8,1,7,2,7,2,8,7,6,5,1,2,3,4,
6,5,6,5,{8}7,{16}2,1,2,1,{8}3,{16}7,8,7,8,
6,5,6,5,7,1,7,1,{24}8,7,6,1,2,3,7,6,5,2,3,4,
{16}7,8,7,8,{8}6,{16}3,4,3,4,{8}2,{16}6,5,6,4,
{8}7h[8:1],{16}2,5,1,7,2,6,3,2,1,8,1,8,7,6,
{24}2b,3,4,8b,7,6,2b,3,4,8b,7,6,{32}1b-5[8:1],2,3,4,5,6,7,8,1b,Cf,{96},,,,,,,,,,,,,,,,,,{24}7b,
6,5,1b,2,3,7b,6,5,1b,2,3,{32}8b-4[8:1],7,6,5,4,3,2,1,8b,Cf,{96},,,,,,,,,,,,,,,,,,{24}2,
7,2,7,2,7,2b,7b,2b,7b,2b,7b,1,8,1,8,1,8,1b,8b,1b,8b,1b,8b,
1b,2,3,8b,7,6,2b,3,4,7b,6,5,{32}8b,1,2,3,8b,7,6,5,1b-5b[8:1],2,3,4,1b,8,7,6,
5b/1b<1<8<7<6>5>4>3>2<1[4:15],Cf/B1/B5,{1},,,{4},,,{16},,,{1}Ch[16:1],
E
&lv_6=1
&des_6=
&inote_6=
(222){4},{24},,,,,,,,,,,,,,,,,,8<1[8:9],
1,{12}2,,,,,,,,,,,{1}5-1b[8:1],
{24}1>8[8:9],8,{12}7,,,,,,,,,,,{1}4-8b[8:1],
{24}E6/2-5[4:1],E7,{12}E8,,,,,,,,,,,{2}7<4[4:1],
1>5[4:1],
{12}6,7,8,1s5b[4:3],
E
