&title=ALTER EGO
&artist=Yuta Imai vs Qlarabelle
&first=-0.05
&des=ELAINEBLATH
&lv_5=14+
&inote_5=(195){4},,Ch[4:1],{16}E7,B6,B5,E5,
{4}E3/B3,{8}E1,E8,E7,E6,E5,{16}E3,B3,
{4}B4/B8/E1,{16}E8,,,E7,{8}E6,{24}E2,E3,E4,{8}E5,B6,
{4}D8/E8/A7,{8}A4,A3,A2,A1,A8,{16}D7,E6,
{4}D5/A1/B1/E1,{16}D4,,,D3,{8}D2,{24}A8,A7,A6,{8}A5,A4,
D3/E3/A2/A3,,,,,2,3,(193)4,
(191){16}5xh[#5.196922],(189),(187)6,(185),(183)7,(181),(179)8,(177),(175)1,(173),(171)2,(169),(167)3,(165),(163)4,(161),
(159)6b,(157),(155)7,(153),(151)8,(149),(147)1b,(145),(143)2,(141),(139)3,(137),(135)4b,(133),(131)6,(129),
(127)7,(125),(123)8b,(121),(119)1,(117),(115)2,(113),(111)3b,(109),(107),(105),(103)6b,(101),(99),(98),
{2}1bV75p4>5b[4:5]*V75p4[16:11],Ch[8:1],
Ch[8:1],{4}Ch[8:1],(195)2xh[4:1],
8xh[4:1],{32}2bx,3,{16}4h[16:7],,,,,,,{4}6xh[2:1],
{32},,,,,,,,2bx,1,{16}8h[16:7],,,,,,,{4}6xh[4:1],
2xh[4:1],{32}6bx,5,{16}4h[16:7],,,,,,,{4}2xh[4:1],
8xh[4:1],{32}2bx,3,{16}4h[16:7],,,,,,,{4}8bxh[4:1],
2xh[4:1],{32}6bx,5/1,{16}8/4h[16:7],,,,,,,{4}2xh[2:1],
{32},,,,,,,,6bx,7/3,{16}4/8h[16:7],,,,,,,{4}6xh[4:1],
2xh[4:1],{32}6bx,5/1,8/4,7/3h[32:13],,,,,,,,,,,,,{4}6xh[4:1],
8xh[4:1],{32}4bx,1/5,2/6,3/7,{8}8h[8:3]/4s8[16:7],{4},,,{32}8b/1b,
2x/7x,3x/6x,5x/4x,,,,,{4}2bx/1bx,{16}8,7,,7,
{8}6,6,{16}4,5,,5,{8}4,{16}4,3,,3,{8}2,
2-5[8:1]/5-8[8:1],1,{4}5b/2b,{16}2,1,{8}2,{16}7,8,7,1,
7,2,{8}7,{16}3,4,3,5,4,6,5,6,8,7,1,8,
2,1,{8}2,{32}1b/8b,7x/2x,6x/3x,4x/5x,,,,,{4}8bx/7bx,{16}1,2,,2,
{8}3,3,{16}5,4,,4,{8}5,{16}5,6,,6,{8}7,
8/4,2,{16}5b/7h[16:3],,,8,,,{8}4b/2h[16:3],{16},1,,,{8}5b-1[8:1]/6b-2[8:1],
7/4,{4}6<5[2:1]/5>6[4:3],,,,4,
4,3/E5,
3,2/E6,2,{8}1/E7,1,
{16}A2,E3,B3,B4,{4}8/E5,8,7/C,
7,6/E1,{16}6,5,,5,{8}6-8[8:1],6,
{4}1b,{8}4b,4,5,5,3,3,
{16}6,5,6,5,{8}7b,7,2,2,8b,8,
1,1,{16}8b,2,8,2,7,3,7,3,{24}6b,5,4,3,2,1,
{32}8/4bx,7/3x,6/2x<5v3[16:11],5/1x,{8}8x/4xh[8:7],{16},,,,,,,,,,,,,,,,8-4[4:9],
1,,1,{8}7,{16}7,2,,2,{8}6,
{16}4,5,{8}5,{16}3,6,,6,{8}2,{16}2,7,,7,{8}1,
{16}8x-4b[8:1],2,{8}2,{4}8bx,3h[8:1],3h[8:1],
5/3h[8:1],4/3h[8:1],5/3h[8:1],6/3h[8:1],
7/3h[8:1],8/3h[8:1],{8}7h[8:1],{16}2,2,{8}7h[8:1],{16}1,1,
{8}7h[8:1],{16}8,8,{8}7h[8:1],{16}6,6,{8}7h[8:1],{16}5,5,{8}7h[8:1],{16}4,4,
5,3,5,3,{8}5-8[8:1],4,5,3,2-5[8:1],1,
2,8,7-4[8:1],8,7,2,3-8[8:1],5,
3,7,7/1,1,2/6,6,3/7,3,
8/4,8,{16}5,1,5,1,4,8,4,8,3,7,3,7,
2,6,2,6,1b,4,3,4,1,5,4,5,8,6,5,6,
1,5,4,5,2,4,3,4,1,5,4,5,8,6,5,6,
1,5,4,5,3b,1,2,1,4,8,1,8,5,7,8,7,
{8}1-5[8:1],2,7x-4[8:1],8,3x-7[8:1],2,5x-8[8:1],4,
{4}1x,{16}7bx,1bx,7bx,1bx,7bx,5,6,5,8,4,5,4,
1,3,4,3,8,4,5,4,7,5,6,5,8,4,5,4,
1,3,4,3,5bx,2bx,5bx,2bx,{8}7b/1b,{16}4bx,6bx,4bx,6bx,{8}8b/2b,
{16}5bx,3bx,5bx,3bx,{4}1b/8b<1[4:9],{8}E2,E3,E4,E5,
E6,E7,{4}8xh[8:3],,7xh[8:3],
,6xh[8:3],,5x-1[8:1],
5xh,2h[8:1]/8x-4[8:1],8/2h[8:1],2h[8:1]/5x-8[8:1],
5/2h[8:1],2h[8:1]/1x-4[8:1],1/2h[8:1],2h[8:1]/5x-1[8:1],
{8}5/3,3,{4}8h[8:1]/3x-8[8:1],3/6h[8:1],5h[8:1]/7x-4[8:1],
7/6h[8:1],8h[8:1]/5x-2[8:1],{2}6h[8:1]/5s1b[8:3],
{16},,,,2>5[8:1],,,1,{8}2b,8,{16}7<4[8:1],,,8,
{8}7b,1,{16}2>5[8:1],,,1,{8}2b,8,7/8,6/5,
4/3,2/1,{16}3v8[8:1],,,4,{8}3b,5,{16}6v1[8:1],,,5,
{8}6b,4,{16}3p7[8:1],,,4,{8}3b,5,5/1,6/2,
7/3,8/4,{4}1h[1:2]/5b-8[1:1],{8},,,,,,,,,,A6,
B7,
C,B3,{4}2x<3[2:3],,,,,,,,6-1-4[2:3]/3-7b[2:1],
,,,2h[4:3],
,,,2-6b[2:1]/3<2[2:3],
,,,4h[4:3],
,,,5v2[2:3]*v8b[2:1],
,,,7,
{8},6,,,{4}5,
3h[4:3]/5>5[4:5]*>1b[8:5],,,,3b,
{16},,,,,,,,4,
5,4,5,{4}3b/6b,{8}1/7,1,2/6,2,
3/5,{16}3,4,{4}3h[4:1],{16}8,,,7,{8}7,{24}6,5,6,
{8}5,7/4,{4}3/8,{8}3/5,3,2/6,2,
1/7,{16}1,8,{4}1h[4:1],{16}5,,,6,{8}6,{24}7,8,7,
{8}8,6/1,{4}2/5pp8[2:1],{8},,,4,
3,2,7h[8:1],{16}8,7,{8}2h[8:1],{16}1,2,{8}7h[8:1],{16}8,6,
{8}2h[8:1],{16}1,3,{8}4x/8x,7,6,5x/1x,2,3,
4x/8,7/3,6/2,5x/1x,6/2,7/3,{4}8bx/4bx,
2bV86p4-2>6[8:27]`6bV42p8-6<2b[8:27],6b/2b,,,,,,,,,,,,,,,6x/2x,
{8}4b,4,5,5,3,3,
{16}6,5,6,5,{8}7b,7,2,2,8b,8,
1,1,{16}8b,2,8,2,7,3,7,3,{24}6b,5,4,3,2,1,
{32}8/4bx,7/3x,6/2x<5[16:7],1x/5v3b[32:9],{8}8x/4x,,,,,{4}1bx,
{16}8,1,8,1,{4}7b/2b-5[8:1],{8}2-8[8:1],8,2V41[4:1],5,
2/7-5[8:1],8-4[8:1],7b-3[8:1],8-2[8:1],{4}7bV58[4:1],{8}7b,1,
2-4[8:1]*-6b[8:1],3,{4}2b-8[8:1],{8}7-4[8:1],6,7-1[8:1],1,
2-4[8:1],3,5/2b-5[8:1],5,6/2b-6[8:1],6,7/2bV41[4:1],8,
2/1-5b[8:1],8,{4}7-4[8:1],7/3-8[8:1],{8}3,5,
1-5[8:1],7,1/6-8[8:1],7,6/2-4[8:1],3,2/5-1[8:1],6-8[8:1],
5,6,{24}2,1,2,1,,,{8}8bx/3bx,{24}7,8,7,{8}8,1bx/6bx,
{24}4,5,4,5,,,{8}2bx/7bxV14[16:5],6,5,4,3bxV58[16:5],2,
1,8,{4}1b-4[1:1],,,,8b-5b[8:1],
8b,{8}1/8,{24}8/1,2/7,6/3,
{8}5-8[8:1]/4-1[8:1],5x/4x,,,2-4[8:1],4-8[8:1],7-5[8:1],6,
7-3[8:1],1,{24}7bx/8-4[8:1],1,{6}2,{24}8bx/7,6,{12}5,{24},,{8}7x/8x,{24}8bx/7bx,1/6,2/5,
{8}3/4,{24}2bx/1bx,3/8,4/7,{4}6/5-8[8:1],5/4,{8}2-5[8:1],8-2[8:1],
2,8-6[8:1],{24}3bx,4,5,8b-5[8:1],,,2bx,3,4,8b-4[8:1],,,1bx-5[8:1],2,3,8b,,,{8}1bx,
{24}8bx,7,6,{8}1b/5x,{24}3,4,3,{8}4,2b/6x,{24}4,5,4,5,,,{8}3b/7x,
{24}5,6,5,{8}6<3[2:1],5,4,3,{4}4-1b[8:1],
{16},,,,8b,2,7,3,6,4,5,3,4b,2,5,1,
6,8,7,1,6b,2,4,3,5b,4,6,3,7b,5,6,4,
5b,3,4,2,1b,3,4,2,5b,4,6,3,8b,5,6,4,
7bqq8[8:3],8,6,1,{4}7b,{24},,,1,2,3,{8}7x/4x-8[8:1],7,
{4}4b/5x,{16}1b,5,3,4,2,1,3,6,4b,5,8,7,
1,6,4,5,3b,7,2,6,1,5,8,4,2b,6,4,8,
3b,7,1,5,2b,4,3,6,5b,7,2,4,3b,1,2,7,
8b,6,3,1,{4}2b-5[8:1],{8}6b-1[8:1],7,{4}4w8[8:1],
4,{8}6x/2x-4[8:1],1,2/8-4[8:1],7V58[4:1],8,7,
1-6[8:1],2,1b-4[8:1],3,1b-6[8:1],7,1b-4[8:1],3,
1b,7,3-1[8:1]/8-4[8:1],2,{4}3/8-6[8:1],{8}8-4[8:1],4xV62[4:1],
3,2,1w5[8:1],8,{4}1bx,7x/3x,
{16}2,8,2,8,{8}7/3-5[8:1],3,7-3[8:1],7,1,1,
{16}8/4,5/1,6/2,7/3,{8}4/8-2[8:1],8,4-8[8:1],4,6,6,
{16}1/5,6/2,7/3,8/4,{8}5bx/1bx,5bx/1bx,{16}5bx/1bx,4/8,3/7,2/6,{24}1/5b,4,3,2,1,8,
{32}7/3b,6/2,5/1,4/8,{8}3/7,{16}1b,4,3,8,5,6,1,3,2,8,6,7,
2,5,4,7,{4}1/Cf,,,,B6h[4:1],
B5h[4:1],B4h[4:1],
{1}B3h[4:1],
E
