&title=悔_
&artist=Essbee
&first=0
&des=Over the top
&lv_5=14+
&inote_5=(193)
{4}
,,,,
{8}
,,,,,,,,
{8}
,,,,,,C,,
{8}
4b>6[4:4]*pp4[4:4],,,,,,,,
{8}
,,,,,,15,,
{8}
7q1[4:4]/3q5[4:4],,,,,,,,
{8}
,,,,,,37,,
{8}
8pp5[4:3]/2qq5[4:3],,,,,,,,
{8}
,,,3,12,,6,7pp3[8:5]/5pp4[8:5],
{8}
,,,,,,,,
{8}
8h[4:3],,,4-1[6:1],,,,,
{8}
2b>5[4:1]/7,,,6,8h[8:3],,7,7,
{8}
,5,4,3,1-4[8:1]/2-5[8:1],,,,
{8}
7<4[4:1],,,3,1h[8:3],,2,2,
{8}
,4,5,6,8-5[8:1]/7-4[8:1],,,,
{8}
3>8[4:1],,,7,5h[8:3],,6,6,
{8}
,8,1,2,5-2[8:1]/3-6[8:1],,,,
{8}
8,7,6,5,46,5,4,3,
{8}
5h[8:3]/2h[2:1],,,,{16}5,4,3,2,1-5[8:1],8,7,6,
{8}
5b/1b,,7-4[8:1],,3,1>4[8:1],,71,
{16}
,,6,5,6,,7,,28,,4,,2/1<6[8:1],,3,,
{8}
4,,2-5[8:1],,6,8<5[8:1],,28,
{16}
,,3,4,3,,2,,71,,5,,7/8>3[8:1],,6,,
{8}
5,,5-2[8:1],6,7,8-4[8:1],,84,
{16}
,,2,1,2,,3,,46,,5,,7/1<6[8:1],,2,,
{8}
4,,4-7[8:1],3,2,1-5[8:1],,15,
{16}
,,7,8,7,,6,,2b/5-8[8:1],,7b/4,,,,1b>4[8:1],,
{8}
,5,7V53[16:3],,3,1-4[8:1]*-6[8:1],,1,
{16}
,,2,1,2,,3,,46,,5,,24,,8/7<4[8:1],,
{8}
,4,2-6[8:1],,6,8^5[8:1]*^3[8:1],,8,
{16}
,,7,8,7,,26,,4,,2,1,83,,,,
{8}
7b-4[8:1],4<1[4:1],7,1,,2,34,,
{8}
1b-6[8:1],6<4[4:1],1,4,5,6,73,,
{8}
8b,62,7,3,25,8,46,2,
{16}
1b/7b,,6,8,,3,1,,7-3[8:1],,5,,7,,,,
{8}
4h[8:1],,4h[8:1],,3h[8:1]/5h[8:1],,3h[8:1]/5h[8:1],,
{8}
2h[8:1],8h[8:1],2h[8:1],7h[8:1],2h[8:1],6h[8:1],2h[8:1],5h[8:1],
{8}
4h[8:1],,4h[8:1],,3h[8:1]/5h[8:1],,3h[8:1]/5h[8:1],,
{8}
1h[8:1]/2h[8:1],,8h[8:1]/2h[8:1],,7h[8:1]/2h[8:1],,6h[8:1]/2h[8:1],,
{8}
5h[8:1],,5h[8:1],,6h[8:1]/4h[8:1],,6h[8:1]/4h[8:1],,
{8}
7h[8:1],1h[8:1],7h[8:1],2h[8:1],7h[8:1],3h[8:1],7h[8:1],4h[8:1],
{8}
5h[8:1],,5h[8:1],,6h[8:1]/4h[8:1],,6h[8:1]/4h[8:1],,
{16}
2h[8:1]/E8,E7,E6,E5,E4/2h[8:1],,,,7,6,5,4,8-4[8:1],1,2,3,
{8}
4/8b,,3,4,1,8,5,6,
{8}
2,3,8,7,4,5,2,1,
{8}
37,,6,5,8,1,4,3,
{8}
7,6,1,2,5,4,7,8,
{8}
26,,3,4,1,8,74,36,
{8}
2,7,64,35,1,8,27,,
{8}
6,5,8,1,4,35,26,17,
{16}
2,6,2,6,3,7,3,7,4,8,3,7,2,6,1bqq4[8:11]/7bpp4[8:11],,
{8}
,,,,,,,,
{8}
,,,,,,8-4[8:1],,
{8}
8b<1[4:13]`Cf,,,,,,,E5,
{8}
,,,,E1,,,,
{8}
E6,,,E5,,,E4,,
{8}
,,,,8,,7,,
{8}
6/2qq4[8:8],,,,,,,5pp3[8:7],
{8}
,,,,2,,1,,
{8}
8<2[8:6],,,5,,,,,
{8}
8h[4:3],,,1-4[6:1],,,,,
{8}
2>5[4:1]/7b,,,6,8h[8:3],,7,7,
{8}
,5,4,3,1-4[8:1]/2-5[8:1],,,,
{8}
6<1[4:1],,,2,4h[8:3],,3,3,
{8}
,1,8,7,4-7[8:1]/6-3[8:1],,,,
{8}
1b<6[8:1],,5,4q1[6:1],,2,3<6[8:1],,
{8}
8b>3[8:1],,4,5p8[6:1],,7,6>3[8:1],,
{16}
1b,,1,,1,,3b/7b,,26,,3,4,3,,7h[4:1]/1b,,
{16}
,,8,1,2,3,4,5,8,7,6,5,{32}8z4[16:3],7v4[32:5],6,5,4,3,2,1,
{8}
8b,,,62,,5qq4[16:3],4,5<1[8:1],
{16}
,,,,E6,E7,E8,E1,E2,,5qq4[16:3]*<1[8:1],,37,,5,,
{8}
,,23,,67,5/8v6[8:1],,7V53[16:3],
{8}
,8,8,,1-7[12:1],1-3[12:1],1x-5[8:1],1x,
{8}
1x,,,37,,4pp5[16:3],5,4>8[8:1],
{16}
,,,,6,,4,,8,,4pp5[16:3]*>8[8:1],,26,,4,,
{8}
,,67,,23,4/1-4[8:1],,5-2[8:1],
{8}
,7-5[12:1],7-1[12:1],7x-3[8:1],7x,7x,,,
{16}
1b,,,,87,,1,2,3,4,5/6<1[8:1],,73,,,,
{16}
4,,3,,12,,8,7,6,5,4/3>8[8:1],,26,,,,
{16}
6-3[8:1],,1-4[8:1],,6,,1,,8-4[8:1],,2>5[8:1],,8,,2,,
{16}
8,,8,7,64,,3,,12,,8,7,6-3[8:1]/5,,,,
{16}
3b,,,,12,,8,7,6,5,4/3>8[8:1],,26,,,,
{16}
5,,6,,87,,1,2,3,4,5/6<1[8:1],,73,,,,
{16}
3-6[8:1],,8-3[8:1],,3>5[4:1],,8,,,,4,,2,,8,,
{16}
17,,5,4,5,,36,,18,,2>5[8:1]/7<4[8:1],,,,2bz6[6:1]/7bs3[6:1],,
{8}
,,,,45,1-5[8:1]/8-4[8:1],,1b/8b,
{16}
,,3,,24,,57,,{24}1,2,3,7,6,5,8-4[8:1]/4,,,,,,
{16}
8b/3,,3,,12,,8,7,6,5,4/3-7[8:1],,2/6-2[8:1],,,,
{16}
,,8,,1,,2,,73,4,5,6,7,8,5/1>4[8:1],,
{8}
,6,7bV53[16:3],,2,1,8b-3[8:1]*-5[8:1],,
{8}
8b,,4,2b/6b,,1-5[8:1],37,1b,
{8}
,12,13,14,15,16,17,18,
{16}
,,26,37,48,,37,,2x-7[8:1]/6x-3[8:1],,,,,,,,
{16}
8b/4b,15,26,37,4/8-4[8:1],,,,4,3,2,1,8,7,6,5,
{16}
84,73,62,51,4/8-3[8:1]*-5[8:1],,,,8,,,,1,2,3,4,
{16}
15,6,7,8,51,2,3,4,15,6,7,8,51,2,3,4,
{16}
8,4,8,4,7,3,7,3,6,2,6,2,5,4,3,2,
{16}
1b/5b,84,73,62,5/1-5[8:1],,,,5,6,7,8,1,2,3,4,
{16}
1b/5,26,37,48,5/1-6[8:1]*-4[8:1],,,,1,,,,8,7,6,5,
{16}
8b/4,3,2,1,48,7,6,5,8b/4,3,2,1,48,7,6,5,
{16}
4/1b,2,3,4,8b,7,6,5,
{12}2b,2b,2b,6b,6b,6b,
{32}3,4,5,6,7,8,1,2,
{16}3b/7b,,,,2,8,2,8,3,7,3,7,
{16}4,6,4,6,3,5,2,4,1,8,5,7,4,6,3,5,
{16}2,6,4,7,3,5,1,7,3,8,2,6,1,7,3,8,
{16}5,6,3,4,2,6,5,8,1,7,3,5,1>4[8:1],,,,
{16}1b/7,,6-1[8:1],,6,,5,,5,,7,6,5/2<7[8:1],,3,,
{16}2b/4,,4-8[8:1],,4,,1,,{24}1b,2,3,7,6,5,41,,,,,,
{24}
1b,2,3,5,6,7,1,2,3,5,6,7,2b,3,4,5,6,7,3,4,5,6,7,8,
{24}
2b,1,2,1,2,1,3b,8,3,8,3,8,
{32}4b,5,6b,7,8b,1,2b,3,4b-8[8:1],5b,6b,7b,8b,1b,2b,3b,
{8}
4bpp4[4:13]*qq4[4:13]`Cf,,,,,,,,
{8}
,,,,,,,,
{8}
,,,,,,,,
{8}
,,,,,,,,
{8}
6<1[8:5],,,2,,3,,4h[8:5],
{8}
,,,,3,,,,
{8}
2>5[8:5],,,,6,7,,8h[8:5],
{8}
,,,,4,,2>5[4:1],6z2[8:3],
{8}
,,,,1,,7>2[8:3],3<6[8:3],
{8}
,,,,,,8h[16:1],6z2[8:3],
{8}
6,,,,8,7,,2<7[8:3]/6>3[8:3],
{8}
,,,,,,2,7<4[8:3],
{8}
,,,,1,,,,
{16}
6z2[8:3],3s7[16:5],6,3,6,,,,,,,,,,3>8[8:4],,
{8}
,,,7,,6,,5h[4:1],
{8}
,3,6,4,5pp5[2:1],5qq5[8:3],,,
{8}
,,,,,,,,
E
