&title=Barber's Madness
&artist=Klass E (Pump It Up Phoneix 2023)
&first=0.12
&des=Master Madness (Master Lim)
&des_6=Master Madness (Master Lim)
&lv_6=14+
&lv_7=Legacy 14+
&inote_6=(195){8}5,,5,,5,,5,,5,,5,,5,1,5,1,5,1,5,,5,,5,1,5,1,5,,5,
(195){8}1,5,1,5,1,5,2,5,2,5,3,5,3,5/4h[40:10],,5,3,5,3,
(195){8}5,4,5,3,5,4,5,3,
(195){8}6,4,6/3h[40:10],,6,4,6,3,
(195){16}8,7,6,,1,2,3,,7,6,5,,2,3,4,,
(195){16}5<8[4:3],,,,4h[40:10],,,,,,3,,2,,1,,
(195){16}1>4[4:3],,,,8h[40:10],,,,,,7,,6,,5,,
(195){16}5<8[12:3],,3,,2,,1,,
(195){16}1>4[20:3],,6,,7,,8,,
(195){16}8,7,6,,1,2,3,,7,6,5,,2,3,4,,
(195){8}5b/4b,4,4/3,4,4/5,4,
(195){16}4,5,4,,
(195){8}4/5,5,5/6,5,5/4,5,
(195){16}4,5,4,,
(195){8}4/3,3,3/2,3,3/4,3,
(195){16}3,4,3,,
(195){8}5/6,6,6/7,6,6/5,6,
(195){16}5,6,5,,
(195){16}1,2,3,,8,,7,,2,3,4,,7,,6,,1,2,3,,5h[40:10],,,,4,,3,,2,,1,,
(195){16}8,,2,,7h[40:10],,,,3,,6,,4,,5,,3,,6,,3h[40:10],,,,6,,2,,7,,1,,
(195){16}8,7,6,,1,2,3,,7,6,5,,2,3,4,,4,5,4,5,3,6,3,6,2b,7b,2b,7b,1b,8b,1b,8b,
(195){16}1b,2,3,4,8,7,6,5,1,2,3,4,8,7,6,5,
(195){16}4b,3,2,1,5,6,7,8,4,3,2,1,5,6,7,8,
(195){8}3b/4b,7,5/6,2,3/4,7,5/6,2,
(195){8}3b/4b,8,5/6,1,3/4,8,
(195){16}3,4,3,,
(195){16}5b,6,7,8,4,3,2,1,5,6,7,8,4,3,2,1,
(195){16}8b,7,6,5,1,2,3,4,8,7,6,5,1,2,3,4,
(195){8}6b/5b,1,4/3,8,6/5,1,4/3,8,
(195){8}6b/5b,2,4/3,7,6/5,2,
(195){16}4,5,4,,5b<8b[40:10],,,,4,3,2,1h[40:10],,,,,,,2,7,2h[20:10],,6,,6h[40:10],,,,,,4,,4,,5,3,5h[20:10],,2,,2h[40:10],,,,,,4,,4,,3,6,3s7b[20:10],,,,,,,,,,,,,,,,
(195){8}1bh[40:10]/2bh[40:10],,,1/2,3/4,5/6,7/8,1/2,3/4,8,5/6,1,3/4,8,
(195){16}5,6,5,,
(195){8}8bh[40:10]/7bh[40:10],,,8/7,6/5,4/3,2/1,8/7,6/5,1,4/3,8,6/5,1,
(195){16}3,4,3,,
(195){8}6b>6[281:1000],,,,,,,,4b>6b[390:1000],,,,,,,,2<6[640:1000],,,,,,,,8b<6b[1790:1000],,,,,,,
(195){16}1,2,
(195){8}3b,,3,,3,,3,,3,,3,,3,
(195){16},1,3,,,8,3,,,7,3,,,6,3,,,5,3,,,4,3,,,,2b,3,4,5,
(195){8}6,,6,,6,,6,,6,,6,,6,,6,,6,
(195){16},8,6,,,1,6,,,2,6,,,3,6,,,4,6,,,5,6,,,,5b,6,7,8,
(195){8}1,,1,,1,,
(195){16}1,2,3,4h[32:10],,,,,5h[39:10],,,,3h[39:10],,,,6,,,,7h[39:10],,,,2,6,2,6,3,4,2,6,5,7,3,4,1,6,5,8,3,4,1,6,
(195){8}4,,4,,4/6,,4,,5,,5,,5/3,,5,,
(195){8}4/5,4/5,6/3,6/3,2/7,2/7,8/1,8/1,
(195){16}1,8,1,8,2,7,2,7,3b,6b,3b,6b,3b,5b,3b,4b,
(195){16}3b,,8,,5/6,,1,,3/4,,8,,1,2,3,4,
(195){16}5/6,,1,,3/4,,8,,5/6,,1,,8,7,6,5,
(195){16}3/4,,8,,5/6,,1,,5h[50:10]/4h[50:10],,,,2,,2,,
(195){16}8,7,6,,1,2,3,,7,6,5,,2,3,4,,
(195){16}2b/1b,,5,,8/7,,4,,2/1,,5,,4,3,2,1,
(195){16}8/7,,4,,2/1,,5,,8/7,,4,,5,6,7,8,
(195){16}2/1,,5,,8/7,,4,,8h[50:10]/1h[50:10],,,,3,,3,,
(195){16}5,6,7,,4,3,2,,6,7,8,,3,2,1,,
(195){16}3b/4b,,7,,5b/6b,,2,,3b/4b,,7,,1,2,3,4,
(195){16}5b/6b,,2,,3b/4b,,7,,5b/6b,,2,,8,7,6,5,
(195){16}3b/4b,,7,,5b/6b,,2,,5bh[50:10]/4bh[50:10],,,,2,,2,,
(195){16}8b,7,6,,1b,2,3,,7b,6,5,,2b,3,4,,
(195){16}2b/1b,,,,8/3,,8/3,,7/4,,7/4,,5,6,5,,
(195){16}7b/8b,,,,1/6,,1/6,,2/5,,2/5,,3,4,3,,
(195){16}6b/5b,,,,4/7,,4/7,,3/8,,3/8,,2,1,2,,
(195){16}3b/4b,,,,5/2,,5/2,,6/1,,6/1,,8,7,8,,
(195){16}1b,8,1,8,2,7,2,7,3,6,3,6,4,5,4,5,8b,7,8,7,1,6,1,6,2,5,2,5,3,4,3,4,
(195){16}8b,7,6,5,4,3,2,1,8,7,6,5,4,3,2,1,
(195){8}8b/7b,,3b/4b,,6b/5b,,8b-6b[7:1]/1b-5[7:1],,8b-4b[7:1]/1b-3[7:1],,8b-6[7:1]/1b-5b[7:1],,8b-4[7:1]/1b-3b[7:1],,8b-6b[7:1]/1b-5b[7:1],,8b-4b[7:1]/1b-3b[7:1],,8b-6b[7:1]/1b-5b[7:1],,8b-4b[7:1]/1b-3b[7:1],,1bw5b[7:1],,Cf,
(195){8},,,,,1h[40:10],,8,,,,,,7h[40:10],,2,,,,,,3h[40:10],,6,,,,5h[20:10],,,,4b,
&inote_7=(195){8}5,,5,,5,,5,,5,,5,,5,1,5,1,5,1,5,,5,,5,1,5,1,5,,5,
(195){8}1,5,1,5,1,5,2,5,2,5,3,5,3,5/4h[40:10],,5,3,5,3,
(195){8}5,4,5,3,5,4,5,3,
(195){8}6,4,6/3h[40:10],,6,4,6,3,
(195){16}8,7,6,,1,2,3,,7,6,5,,2,3,4,,
(195){16}5<8[4:3],,,,4h[40:10],,,,,,3,,2,,1,,
(195){16}1>4[4:3],,,,8h[40:10],,,,,,7,,6,,5,,
(195){16}5<8[12:3],,3,,2,,1,,
(195){16}1>4[20:3],,6,,7,,8,,
(195){16}8,7,6,,1,2,3,,7,6,5,,2,3,4,,
(195){8}5b/4b,4,4/3,4,4/5,4,4/3,,
(195){8}4/5,5,5/6,5,5/4,5,5/6,,
(195){8}4/3,3,3/2,3,3/4,3,3/2,,
(195){8}5/6,6,6/7,6,6/5,6,6/7,,
(195){16}1,2,3,,8,,7,,2,3,4,,7,,6,,1,2,3,,5h[40:10],,,,4,,3,,2,,1,,
(195){16}8,,2,,7h[40:10],,,,3,,6,,4,,5,,3,,6,,3h[40:10],,,,6,,2,,7,,1,,
(195){16}8,7,6,,1,2,3,,7,6,5,,2,3,4,,4,5,4,5,3,6,3,6,2b,7b,2b,7b,1b,8b,1b,8b,
(195){16}1b,2,3,4,8,7,6,5,1,2,3,4,8,7,6,5,
(195){16}4,3,2,1,5,6,7,8,4,3,2,1,5,6,7,8,
(195){8}3/4,7,5/6,2,3/4,7,5/6,2,
(195){8}3/4,8,5/6,1,3/4,8,5/6,1,
(195){16}5b,6,7,8,4,3,2,1,5,6,7,8,4,3,2,1,
(195){16}8,7,6,5,1,2,3,4,8,7,6,5,1,2,3,4,
(195){8}6/5,1,4/3,8,6/5,1,4/3,8,
(195){8}6/5,2,4/3,7,6/5,2,
(195){16}3,4,3,,5b<8b[40:10],,,,4,3,2,1h[40:10],,,,,,,2,7,2h[20:10],,6,,6h[40:10],,,,,,4,,4,,5,3,5h[20:10],,2,,2h[40:10],,,,,,4,,4,,3,6,3s7b[20:10],,,,,,,,,,,,,,,,
(195){8}1bh[40:10]/2bh[40:10],,,1/2,3/4,5/6,7/8,1/2,3/4,8,5/6,1,3/4,8,
(195){16}3,4,3,,
(195){8}8bh[40:10]/7bh[40:10],,,8/7,6/5,4/3,2/1,8/7,6/5,1,4/3,8,6/5,1,
(195){16}6,5,6,,
(195){8}6b>6[281:1000],,,,,,,,4>6b[390:1000],,,,,,,,2<6[640:1000],,,,,,,,8<6b[1790:1000],,,,,,,
(195){16}1,2,
(195){8}3b,,3,,3,,3,,3,,3,,3,
(195){16},1,3,,,8,3,,,7,3,,,6,3,,,5,3,,,4,3,,,,2b,3,4,5,
(195){8}6,,6,,6,,6,,6,,6,,6,,6,,6,
(195){16},8,6,,,1,6,,,2,6,,,3,6,,,4,6,,,5,6,,,,5b,6,7,8,
(195){8}1,,1,,1,,
(195){16}1,2,3,4h[32:10],,,,,5h[39:10],,,,3h[39:10],,,,6,,,,7h[39:10],,,,2,6,2,6,3,4,2,6,5,7,3,4,1,6,5,8,3,4,1,6,
(195){8}5,,5,,5/3,,5,,4,,4,,4/6,,4,,
(195){8}4/5,4/5,6/3,6/3,2/7,2/7,8/1,8/1,
(195){16}1,8,1,8,2,7,2,7,3b,6b,3b,6b,4b,5b,4b,5b,
(195){16}3b/4b,,8,,5/6,,1,,3/4,,8,,1,2,3,4,
(195){16}5/6,,1,,3/4,,8,,5/6,,1,,8,7,6,5,
(195){16}3/4,,8,,5/6,,1,,5h[50:10]/4h[50:10],,,,2,,2,,
(195){16}8,7,6,,1,2,3,,7,6,5,,2,3,4,,
(195){16}2b/1b,,5,,8/7,,4,,2/1,,5,,4,3,2,1,
(195){16}8/7,,4,,2/1,,5,,8/7,,4,,5,6,7,8,
(195){16}2/1,,5,,8/7,,4,,8h[50:10]/1h[50:10],,,,3,,3,,
(195){16}5,6,7,,4,3,2,,6,7,8,,3,2,1,,
(195){16}3b/4b,,7,,5b/6b,,2,,3b/4b,,7,,1,2,3,4,
(195){16}5b/6b,,2,,3b/4b,,7,,5b/6b,,2,,8,7,6,5,
(195){16}3b/4b,,7,,5b/6b,,2,,5bh[50:10]/4bh[50:10],,,,2,,2,,
(195){16}8b,7,6,,1b,2,3,,7b,6,5,,2b,3,4,,
(195){16}2b/1b,,,,8/3,,8/3,,7/4,,7/4,,5,6,5,,
(195){16}7b/8b,,,,1/6,,1/6,,2/5,,2/5,,3,4,3,,
(195){16}6b/5b,,,,4/7,,4/7,,3/8,,3/8,,2,1,2,,
(195){16}3b/4b,,,,5/2,,5/2,,6/1,,6/1,,8,7,8,,
(195){16}1b,8,1,8,2,7,2,7,3,6,3,6,4,5,4,5,8b,7,8,7,1,6,1,6,2,5,2,5,3,4,3,4,
(195){16}1b,2,3,4,5,6,7,8,1,2,3,4,5,6,7,8,
(195){8}1b/2b,,3b/4b,,6b/5b,,8b-6b[7:1]/1b-5[7:1],,8b-4b[7:1]/1b-3[7:1],,8b-6[7:1]/1b-5b[7:1],,8b-4[7:1]/1b-3b[7:1],,8b-6b[7:1]/1b-5b[7:1],,8b-4b[7:1]/1b-3b[7:1],,8b-6b[7:1]/1b-5b[7:1],,8b-4b[7:1]/1b-3b[7:1],,1bw5b[7:1],,Cf,
(195){8},,,,,1h[40:10],,8,,,,,,7h[40:10],,2,,,,,,3h[40:10],,6,,,,5h[20:10],,,,4b,
