&title=shadowgraph
&artist=MYTH & ROID
&first=1.14
&des=shadowhehe
&lv_5=12+
&des_5=
&inote_5=(125)
{1},
(125)
{8}4>5[8:11]/6q3[8:4],,,,,,,,
{8}3p4[16:6],,,,,,,,
{8}2q4[4:2]/6q8[4:2],,,,,,,,
{8}4qq1[4:2]/8qq5[4:2],,,,,,,,
{4}2-4[8:1],4,2-4[8:1],4,
{4}3-5[8:1],5,3-5[8:1],5,
{4}4-6[8:1],6,4-6[8:1],6,
{4}1-7[8:1]/7-1[8:1],1pp4[16:5]/7qq4[16:5],,,
{4}3h[4:1]/5-1[8:1],,2h[4:1]/8-4[8:1],,
{4}6h[4:1]/5-1[8:1],,7h[4:1]/8-4[8:1],,
{4}3qq7[4:2]/5,5,6,6,
{4}8-6[8:1]/4^2[8:1],,5^8[8:1]/1v4[8:1],,
{4}3/5-1[8:1],3,2/8-4[8:1],2,
{4}6/5-1[8:1],6,7/8-4[8:1],7,
{4}3qq4[4:2]/5,5,7,7,
{8}5-8[8:1]/7,4,53,,7^4[8:1]/3v8[8:1],2,73,,
{8}1pp4[16:6],,,,8p5[16:6],,,,
{8}1q4[16:6],1,,,8qq5[16:6],,,2,
{8}2h[4:1],,6qq3[16:6],,3,,,,
{8}4^1[8:1],4,,,8^5[8:1],8,,,
{8}2-5[8:1],,6-1[8:1],,3-8[8:1],,7-4[8:1],,
{8}1,1-4[8:1]*-6[8:1],,,,,37,26,
{8}1^4[8:1]/5^8[8:1],,1p5[8:1]/5p1[8:1],,15,,26,37,
{8}4^1[8:1]/8^5[8:1],,4q8[8:1]/8q4[8:1],,4pp7[4:3]/8pp3[4:3],,,,
{8},,,,,,,{16}2,3,
{8}4/6-8[8:1],7,4-2[8:1],3,1v4[8:1]*v6[8:1],,1b,,
{8}3-8[8:1]/7-4[8:1],26,3V58[16:3]/7V14[16:3],,,,,{16}3,4,
{8}2-4[8:1],,2/1-5[8:1],,1/8-6[8:1],,,{16}2,4,
{16}3v8[8:1],,,,7<3[16:3],,,,1,,,1,,,{16}2,3,
{16}4/6q2[8:1],,5,,3p7[8:1],,4,,5p8[8:1]*q2[8:1],,,,5b,,,,
{16}3h[8:1]/7h[8:1],,,2h[8:1]/6h[8:1],,,1pp5[16:5]/5pp1[16:5],,15,,,,,,,,
{16},,6-1[8:1],,6,,4,,2>7[4:1],,8v1[8:1],,,,,,
{16},,1b/8b,,2b/7b,,3b/6b,,4b/5b,,,,1h[384:1],,7,6,{8}5/3-1[8:1],4,7-5[8:1],8,4v1[8:1]*v7[8:1],,4b,,
{8}6-3[8:1]/2-7[8:1],73,6V84[16:3]/2V48[16:3],,,,,{16}6,5,
{8}7^5[8:1],,8p4[8:1]/7,,8/1v3[8:1],,,{16}7,5,
{16}6^3[8:1],,,,2q7[16:3],,,,8,,,8,,,{16}7,6,
{16}5/3-8[8:1],,2,,6-1[8:1],,7,,2v4[8:1]*v5[8:1],,,,2b,,,,
{16}3h[8:1]/7h[8:1],,,2h[8:1]/6h[8:1],,,1q4[16:5]/5q8[16:5],,15,,,,,,,,
{16},,3-8[8:1],,3,,7-4[8:1],,7,,,,,,2,,
{16}6,,35,,17,,48,,2h[8:1]/6h[8:1],,,3h[8:1]/7h[8:1],,,48,,
{1}4>5[2:3]/8pp4[2:3],
{1},
{16}25,,16,,3,4,2,,7,5,6,,6,5,7,,
{16}16,,25,,4,3,5,,6,5,6,,5b-8[12:1],6,4b,,
