&title=Scientification
&artist=t+pazolite feat. ななひら
&first=0.078
&des=T+ragiC
&lv_5=14
&des_5=T+ragiC
&inote_5=
(138){4},,{2}Ch[1:1],
{16},,,,,,,,,,E7,E6,{4}E5,
{16}2h[8:1],,,2h[8:1],,,{8}3h[8:1]/4h[8:1],{16},3h[8:1]/4h[8:1],,,5,4,6,5,
7h[8:1],,,7h[8:1],,,{8}6h[8:1]/1h[8:1],{16},3,{8}4,{4}5/2>4[8:1],
{16}6h[8:1],,,6h[8:1],,,{8}7h[8:1]/5h[8:1],{16},5h[8:1]/7h[8:1],,,4,6,3,5,
{8}2h[8:1],{16}4,3,,8,,1/7,,2,4,3,5,4,6,5,
7bxh[8:1],,,7h[8:1],,,{8}6h[8:1]/5h[8:1],{16},6h[8:1]/5h[8:1],,,4,5,3,4,
2h[8:1],,,2h[8:1],,,{8}3h[8:1]/8h[8:1],{16},6,{8}5,{4}4/7<5[8:1],
{16}3h[8:1],,,3h[8:1],,,{8}2h[8:1]/4h[8:1],{16},4h[8:1]/2h[8:1],,,5,3,6,4,
{8}7h[8:1],{16}5,6,,1,,8/2,,7,5,6,4,5,3,4,
{8}2h[8:1],5,{16}2h[8:1],4,,,5/2h[8:1],,,4,{8}2h[8:1],5,
6/1h[8:1],5,{16}1h[8:1],4,,,6/1h[8:1],,,5,{8}1h[8:1],4,
{16}2,5,3,4,1,5,4,6,2,5,3,4,1,5,4,6,
3,7,5,6,2,5,4,6,3,7,5,6,2,4,{8}3h[8:1],
7bxh[8:1],4,{16}7h[8:1],5,,,4/7h[8:1],,,5,{8}7h[8:1],4,
3/8h[8:1],4,{16}8h[8:1],5,,,3/8h[8:1],,,4,{8}8h[8:1],5,
{16}7,4,6,5,8,4,5,3,7,4,6,5,8,4,5,3,
6,2,4,3,7,4,5,3,6,2,4,3,7,4,6,2,
{8}5bxh[8:1],3,{16}6h[8:1],4,,,5/7h[8:1],,,4,{4}6h[8:1],
{8}3h[8:1],5,{16}2h[8:1],6,,,5/1h[8:1],,,4,{4}2h[8:1],
{8}6h[8:1],4,{16}7h[8:1],3,,,4/8h[8:1],,,5,{4}7h[8:1],
{8}4h[8:1],6,{16}3h[8:1],5,,,4/2h[8:1],,,5,{4}3h[8:1],
6,{16}6,5,,,7,,,5,{8}6,4,
7,5,{16}6,4,,,7,,,5,{8}6,4,
{4}5/3,{16}3,4,,,2,,,4,{8}3,5,
2,4,{16}3,5,,,2,,,4,{8}3,5,
{16}4,8,5,6,4,5,3,7,4,8,5,6,4,5,{8}3h[8:1],
{16}6,1,4,3,5,4,6,2,5,1,4,3,5,4,{8}6h[8:1],
{16}3,4,2,5,4,7,5,6,3,4,2,5,4>5[2:1],7,5,6,
{4}4,5>1b[4:1],{16},,,,,,,5,
{8}4,6,7/3,{16}6,4,5,4,{8}6,7/3,{16}4,6,
{8}5,7,8/4,{16}7,5,6,5,{8}7,6/1,{16}2,4,
{8}3,5,6/2,{16}3,5,4,5,{8}3,6/2,{16}5,3,
{8}4,2,1/5,{16}2,4,3,4,{8}2,{16}4,3,5,4,
{4}6<3[2:3],5,5,{16}5,,,5,
{4}4,4,4,4,
{8}5,5,4,4,6,6,3,{16}3,4,
1,5,2,6,3,7,4-1[8:1],8,{8}5h[4:1],{16},,,,8,7,
{8}6/2b,{16}3,4<2[16:5],,2/6,,4/8,,,{8}5,7h[8:1],{16}3,4,
{8}5/6,{16}7,1>7[16:5],,2/8,,1/3,,,2b,1b,{4}8b-3[8:1],
{8}8/6,5-8[8:1],4/2,{16}5-2[8:1],3,,,{8}5,1,{16}8,8,
{4}3-6z2-7[2:1],3xh[2:1],{16},,,,,,2,3,
{8}4/8b,{16}6,5>7[16:5],,3/7,,1/5,,,{8}4,2h[8:1],{16}6,5,
{8}4/3,{16}2,8<2[16:5],,1/7,,8/6,,,1b,8b,{4}7b-4[8:1],
{8}7/1,2-8[8:1],3/5,{16}2-5[8:1],4,,,{8}2,1,{16}8,8,
{8}4-6-2-8[8:3],,,,,7h[8:1],{16},7h[8:1],,,4h[8:1],
,,4h[8:1],,,{8}3h[8:1]/5h[8:1],{16},5h[8:1]/3h[8:1],,,2,4,3,8,
5h[8:1],,,5h[8:1],,,{8}6h[8:1]/4h[8:1],{16},7h[8:1]/3h[8:1],,,{4}8/2,
{16}1h[8:1],,,1h[8:1],,,{8}2h[8:1]/5h[8:1],{16},2h[8:1]/5h[8:1],,,3,6,5,7,
{8}1h[8:1],{16}4,2,,5,,3/6,,4,7,5,8,2,4,3,
5bxh[8:1],,,5h[8:1],,,{8}6h[8:1]/4h[8:1],{16},4h[8:1]/6h[8:1],,,7,5,6,1,
4h[8:1],,,4h[8:1],,,{8}3h[8:1]/5h[8:1],{16},2h[8:1]/6h[8:1],,,{4}1/7,
{16}8h[8:1],,,8h[8:1],,,{8}7h[8:1]/4h[8:1],{16},7h[8:1]/4h[8:1],,,6,3,4,2,
{8}8h[8:1],{16}5,7,,4,,6/3,,5,2,4,1,7,5,6,
{8}3xh[4:1],4h[8:1],{16},4h[8:1],,,2/4h[8:1],,,4h[8:1],{8}3,4h[8:1],
1h[4:1],4h[8:1],{16},4h[8:1],,,2/4h[8:1],,,4h[8:1],,,{8}5/3,
6xh[4:1],4h[8:1],{16},4h[8:1],,,7/4h[8:1],,,4h[8:1],{8}5,4h[8:1],
6h[4:1],4h[8:1],{16},4h[8:1],,,7/4h[8:1],,,4h[8:1],{8}6,5/3,
{16}2,6,4,5,3,4,1,5,2,6,4,5,3,4,{8}1h[8:1],
{16}7,3,5,4,6,5,8,4,7,3,5,4,6,5,{8}8h[8:1],
{16}3,4,2,5,4,7,5,6,3,4,2,5,4>5[2:1],7,5,6,
{2}4,4v1[8:1]*v7[8:1],
{8}2b/6b,3,{16}7<4[8:1],5,,,{8}7/3-6[8:1],{16}2,2h[16:3],,,,,{8}1/7,
6,{16}3-8[8:1],4,,,{8}3/5p1[8:1],{16}6,6h[16:3],,,,,{8}8/7,
1,{16}4-8[8:1],3,,,{8}4/1-5[8:1],{16}2,2h[16:3],,,,,{8}3/6,
7,{16}5-1[8:1],8,,,{8}7/5,{16}6,6,{4}2h[8:1],
{8}7b/3b,6,{16}2>5[8:1],4,,,{8}2/6-3[8:1],{16}7,7h[16:3],,,,,{8}8/2,
3,{16}6-1[8:1],5,,,{8}6/4q8[8:1],{16}3,3h[16:3],,,,,{8}1/2,
8,{16}5-1[8:1],6,,,{8}5/8,{16}7,7,,,{8}6/2,
{16}5,3,8,4,6,1,5,3h[16:5],,,,,6<3[2:1],,,2xh[16:13],
,,,,,,,,,,,,4<1[2:1],,,5xh[16:9],
,,,,,,,,,,,,2>7[2:1],,,3xh[16:9],
,,,,,,,,,,,,8q5[2:1],,,1xh[16:5],
,,,,,,,,{4}2,{16}3>6[2:1],,,7xh[16:13],
,,,,,,,,,,,,5>8[2:1],,,4xh[16:9],
,,,,,,,,,,,,7<2[2:1],,,6xh[16:9],
,,,,,,,,,,,,{8}1p4[2:1],{16}8x,7xh[16:9],
,,,,,,,,,,,,6,,,4,
{8}5,3,2/6,{16}3,5,4,5,{8}3,2/6,{16}5,3,
{8}4,2,1/5,{16}2,4,3,4,{8}2,3/8,{16}7,5,
{8}6,4,3/7,{16}6,4,5,4,{8}6,3/7,{16}4,6,
{8}5,7,8/4,{16}7,5,6,5,{8}7,{16}5,6,4,5,
{8}3,4,2/5,{16}3,4,2,5,{8}4,3/7,{16}6,4,
{8}5,6,7/4,{16}6,5,7,4,{8}5,6/2,3,
{4}4/8>4q7[2:3],,,5p2b[4:3],
,,,,{2}1b,
{8}3b,E7/B6,{4}E3/B3,
{2}5b,{8}7b,{16}2b,3b,{4}4b/8b-4[8:1],
{8}8b/3,2-5[8:1],1/6,{16}2,8,,,{8}1,7/3-8[8:1],{16}4pp7[8:3],5,
{4}3,1,{8},3xh[8:1],{16},3xh[8:1],8,7,
{8}6/2b,{16}3,4-8[8:1],,2/8,,4/6,,,{8}7,5/1,{16}2,3,
{8}4/8,{16}6,5>7[16:5],,7/3,,5/1,,,5b,4b,{4}3b-8[8:1],
{8}3/6,5-1[8:1],4/1,{16}5,2,,,{8}3,4/8,{16}7,5,
{4}6h[4:1],C,{16}3h[16:3],,,5h[16:3],,,8,1,
{8}2/6b,{16}7,4<2[16:5],,8/2,,4/6,,,{8}5,6h[8:1],{16}3,4,
{8}5/7,{16}8,1<3[16:5],,5/3,,1/7,,,1b,8b,{4}7b-4[8:1],
{8}2/7,1-5[8:1],8/6,{16}1,7,,,{8}8/4,{16}3/7<1[4:1],2/6,5/1,8/4h[16:3],
,,,,{4}8,{16}6h[16:3],,,4h[16:3],,,1,8,
{8}7/3b,{16}2,5>7[16:5],,1/7,,5/3,,,{8}4,3h[8:1],{16}6,5,
{8}4/2,{16}1,7,,6/5-1[8:1],,8/2,,5/4,{8}3,{4}2b-5[8:1],
{8}2/8,7-4[8:1],6/4,{16}7,1,,,{8}8,6/2,{16}3,5,
{4}4h[4:1],{8}5,3,6/2,5,{16}1,4h[8:1],,,8b,
5,2,6,5,7,4,5,2,4,3,7,4,5,2,6,
5,7,1,4,3,6,5,7,2,8,3,5,4,6,8,7,
1,4,2,6,3,8,5,7,1,6,2,4,3,6,5,7,
2,8,3,5,4,7,1,5,2,4,3,6,4,7,{8}5h[8:1],
{16}1b,4,7,3,4,2,5,4,7,5,6,2,5,4,7,3,
4,2,8,5,6,3,4,2,7,1,6,4,5,3,1,2,
8,5,7,3,6,1,4,2,8,3,7,5,6,3,4,2,
7,1,6,4,5,2,8,4,7,5,6,3,4,2,{8}8h[8:1],
{16}1,6,5,8,4,5,1,4,3,7,4,5,2,6,2,6,
1b,4,3,8,,,7b,5,6,1,,,2b,6,5,4b/8b,
E
