&title=Shadows ~影色妖精絵本~
&artist=葉月ゆら
&first=0.014
&des_5=Hakusei
&lv_5=13+
&des=Hakusei
&inote_4=(140){4},
E
&inote_5=(140){4},{8},,,,,,2h[2:1]/4h[2:1],
,,,,,,6/4,
{1}4h[2:1]/6h[2:1],
{8}7h[2:1]/1h[2:1],,,,,,,3/5,
{4}4h[8:1]/6h[8:1],5h[8:1]/7h[8:1],6h[8:1]/8h[8:1],1b/7b<3[4:1],
{8}7/8,1,1,1,2/4,{16}3,5,{8}4>1[16:3],6,
4/7,8,7,6,5/1,{16}2,4,{4}3>7[4:1],
{8}3/7,6,6,6,{16}5h[16:3],,,8h[16:3],,,{8}7h[8:1],
{16}1,8,{8}2,3/4,{16}6,5,6,5,{8}7,{16}7,8,6,6,
{8}1h[2:1],5,6,7,{4}8w4[8:1],{32}8b/B8f,C,{16}B5/B4/B3,,,{8}6,
6,4,5,{16}3>8[16:3],,,4,,,{8}5,
6z2[4:1],,,1,{2}1-5[8:1],
{8}6,6,5,7,{16}7<4[16:3],,,8,,,{8}1,
2p8[16:5],,,7,{2}7<1[4:1],
{4},6-4[8:1],6-8[8:1]/2-6[8:1],6>1[4:1],
{16}7,,,7,,,{8}6,1h[4:1]/5h[4:1],{16},,,,2,4,
{8}3h[4:1]/5h[4:1],,,6,5h[4:1]/7h[4:1],,,1/8,
{16}2-6b[8:1],1,{8}3,5,5,{4}5-8[8:1],5/1,
{8}3/4,3,5,4,{16}5/6<1[16:3],,,5,{8}6,4,
{4}3s7[4:1],{8}8,8,{4}8-4[8:1],8/1,
{8}3/5,3,4,2,{16}1/2>5[16:3],,,1,{8}2,8,
{4}7q1[16:5],{8}2,2,{4}2>5<8[4:1],{8}1,{16}E2,E3,
{4}E4,4-2[8:1],4-8[8:1]/7-4[8:1],4<1[4:1],
{16}3,,,3,,,{8}4,4h[4:1]/8h[4:1],{16},,,,7,8,
1/6<1[8:1],,,5,,,{8}4,{16}3>8[8:1],,,4,,,{8}5,
{16}6,8,{8}1/5-1[8:1],,5/2,{4}3-8[8:1]*-7[8:1],3b,
E7fh[1:3],E1,E2,E3,
{2}4h[4:1],5h[4:1],
{4}5,4,3,2,
{1}1b>5[2:1],
{4}E3h[4:7],E8,E7,E6,
{2}5h[4:1],{4}4,{8}5,5,
6/4,7,6/4,3,4/6,7,4/6,3,
4/6,7,8/1,2,3/5,6,7/8,7/8,
{16}1,6,1,6,2,7,2,7,3,8,3,8,4,1,4,1,
{8}4>8[4:1],8b,7b,6b,{4}5bw1b[8:1],{32}5b/B5f,C,{16}B8/B1/B2,,,{8}7-4[8:1],
8,2-5[8:1],1,{4}8-4[8:1],4/8>6[4:1],
{8}8/2,{16},,,,3,4,{8}2,1,{4}7h[4:1]/8-5[8:1],
{8}8-3[8:1],6,8-4[8:1],4,8,{16}6-1[8:1],6,,,{8}6/4,
3,2,1/5,8,{4}4-1[8:1]/7-2[8:1],4b/7b,
{8}2-5[8:1],1,7-4[8:1],8,{4}1-5[8:1],5/1<3[4:1],
{8}7/1,{16},,,,6,5,{8}7,8,{4}1/2-5[8:1],
{8}2/8,7,4/6-1[8:1],3,2/6,{16}3,3h[16:3],,,1,2,
{8}8<5[8:1],1,8-4[8:1],2,1-5[8:1]/8-6[8:1],2,{4}1b/8b,
{8}6/3-8[8:1],4,3/6-1[8:1],5,{4}6/3-6[8:1],2/3V51[4:1],
{8}3/8,{16},,,,7,8,{8}6,5,{4}2h[4:1]/4-1[8:1],
{8}4,3,4-1[8:1],5,4/6,{16}7qq6<1[8:3],7,,,{8}7/1,
2,3,4,4,{4}5p8b[8:1]/1p4[8:1],1b/5b,
{8}6-1[8:1],5,6/3-8[8:1],4,{4}3/6-3[8:1],7/6q4[4:1],
{8}6/2,{16},,,,2-5[8:1],3,{8}1-6[8:1],2,{4}1,
{8}4-8[8:1],3,2/4,3,4-8[8:1],5,4/6,7,
1-3[8:1]/8-4[8:1],2/7,{4}1b-5[8:1]/8b-6[8:1],1b/8b,7b/2b,
{8}5/1>4[8:1],6,7,8,1<6[8:1],5,4,3,
{16}2,5,{8}2,3/1,4,6/8,5,4/3,2,
{4}6/1h[4:1],7h[2:1],{8}8,{24}8,1,2,{8}3-1-5[16:5],6,
3,,,7,{4}7-4[8:1]*z3[8:1],7b,
{8}5<8[8:1],4,3,2>5[8:1],1,8,7,6/4,
{16}3,4,{8}2,1-5[8:1],1,7-4[8:1],7,4<2[4:1],3,
{4}2<4[4:1],4<2[4:1],2<4[4:1],4<2[4:1],
{2}2-6-4b[4:1],{16}3,,,2,,,{8}6/1,
{16}7,8,7,8,6,1,6,1,5,2,5,2,4,3,4,3,
{8}4h[8:3],{16},,,,2,5,{2}1h[2:1],
{1}B6h[1:1],
{2}B2h[1:1],D8/E8/A8,
B5h[1:1],E1/B8/B1,
E3fh[4:3],{16}E1,E8,E7,E6,{4}E5h[4:1],
1-4[2:1],6,7,8,
8-5[2:1],4,3,2,
1h[8:1]/4h[8:1],1h[8:1]/5h[8:1],1h[8:1]/6h[8:1],1h[8:1]/7h[8:1],
{8}2/8,2/8,1/3,1/3,5v8[8:1]/4v1[8:1],3/6,{4}4b/5b,
{8}2/4-1[8:1],3,6/4-7[8:1],5,{4}4/2-6[8:1],6V42b[4:1]/2V86[4:1],
{16},,,,,,1,1,{8}8-4[8:1],7/1,{4}8/6,
{8}5/3h[4:1],1,5h[4:1],8,2h[4:1],{16}4-8-5-7[16:7],4,,,{8}1,
1,2,2,3,{4}3v8[8:1]*v6[8:1],3b,
{8}7/5-8[8:1],6,3/5-2[8:1],4,{4}5/7-3[8:1],3V57b[4:1]/7V13[4:1],
{16},,,,,,1,1,{8}2/8,3/7,{4}4/6h[4:1],
{8}3h[4:1],4,7h[4:1],8,1,{24}1,2/8,3/7,{8}4/6,5,
{4}5-7[8:1]*-8[8:1],5-3[8:1]*-2[8:1],5w1b[8:1],5b,
{8}7<4[8:1],8,1,2,3/5,{24}5,4,6,{8}5-2[8:1],7,
5/8-5[8:1],7,8/1>4[8:1],2,{24}1/5,6,7,8,,,{4}3/1h[4:1],
{8}2>5[8:1],2,1,8,7-4[8:1],7,8-3[8:1],8,
{4}5<8[8:1],5>2[8:1],{8}5,8,8,1,
2>5[8:1],1,8,7,6/4,{24}4,5,3,{8}4-7[8:1],2,
4/1-4[8:1],2,1/8<5[8:1],7,{24}8/4,3,2,1,,,{4}8/6h[4:1],
{16}7,6,7,6,8,5,8,5,1,4,1,4,2,3,2,3,
{8}1b-5[4:1],{16},,,,6,6,6,,,7/4,,,{8}3/6,
{24},2/5,,,,,,,,,,,{2}1p8b[2:5],
{32},,,,,,,,,,E6,E5,{8}E4,
E
