&title=OMAKENO STROKE
&artist=t+pazolite
&first=0.05
&lv_6=14
&des_6=G.S.Stroke.
&inote_6=
(240){4},{1},{4},,,B2/B3/B6/B7,
1h[16:11]/Ch[4:3],,,{16}2,
3,4,5,6,7,8,1,2,3,4,5,6,7,8,1,
{8}2x-5[8:1],2x,2x/1x-6[8:1],1x,1x,4,3,2,
7-4[8:1],8-3[8:1],7,8,B6/B5,B3/B4,{4}Ch[8:1],
{8}6/5-2[8:1],5,5/6-1[8:1],6,{2}6,
{8}4/3,4/3,5/2,2/5,6/1,1/6,{4}7b/8b,
{8}8/7-4[8:1],7,7/8-3[8:1],8,{4}8,6b/5b,
{8}2-5[8:1],1-6[8:1],2,1,B3/B4,B6/B5,{4}Ch[8:1],
{8}5/4,6,4/5,3,4/5,7,4/5,2,
8/1,1/8,2/7,2/7,{4}1-4[8:1]/8-5[8:1],8b/1b/Cf,
{8}2-6[8:1],2,2/8-4[8:1],8,{4}8,2v5[8:1]/7v4[8:1],
2b/7b,{8}1,{16}1b,2,{8}3/7,{16}7b,6,{4}5/1b,
{8}7-3[8:1],7,7/1-5[8:1],1,{4}1,2-5[8:1]/7-4[8:1],
2b/7b,{8}2/7,3/6,{4}5-8[8:1]/4-1[8:1],4b/5b,
{8}2/7,{16}1,8,{8}1,2/7,{4}6-8[8:1]/3-1[8:1],3b/6b,
{24}1x,2x,3x,4x/5x<8[8:1],{16},,,{48},{8}5/1x,2,3,{4}4qq1[1:1]/5pp8[1:1],
{1}4b/5b,
,{8}6pp2>6[4:5],
{4},,{8}A3,A2,A1,
{1}A8,
{8}3qq7<3[4:5],{4},,{8}A6,A7,A8,
{2}A1,{8}7,7,2,2,
{4}8<6[8:1],3<5[8:1],1-5[8:1],2-6[8:1],
,,{8}4,4,5,5,
{4}1>3[8:1],6>4[8:1],8-4[8:1],7-3[8:1],
,,{8}5,5,4,4,
{4}6>4[8:1],1>3[8:1],7-3[8:1],8-4[8:1],
,,{8}4,4,5,5,
{4}3<5[8:1],8<6[8:1],2-6[8:1],1-5[8:1],
,,{8}5,5,4,4,
{2}5/6-8[8:1],4/3-1[8:1],
4/6-1[8:1],5/3-8[8:1],
{4}4/5-1[8:1],5,5/4-8[8:1],4,
{8}3/6,3/6,2/7,2/7,1-4[8:1]/8-5[8:1],1/8,{4}1b/8b,
6-8[8:1],{8}6/5,5-1[8:1],,5/4,{4}4-2[8:1],
{8}4,7,8,6,1,5,{4}3,
3-1[8:1],{8}3/4,4-8[8:1],,4/5,{4}5-7[8:1],
{8}5,2,1,3,{4}8-4[8:1],8b,
7-5[8:1],{8}7/8,8-4[8:1],,8/1,{4}1-3[8:1],
{8}1,6,5,7,4,8,{4}3,
2-4[8:1],{8}2/1,1-5[8:1],,1/8,{4}8,
8w4[8:1],8b,1w5[8:1],1b,
7-3[8:1],{8}7/8,1-5[8:1],,1/8,{4}8<4[4:1],
4>8[4:1],8<4[4:1],{2}4-8[8:1],
{4}2-6[8:1],{8}2/1,8-4[8:1],,8/1,{4}1>5[4:1],
5<1[4:1],1>5[4:1],{2}5-1[8:1],
{4}6-2[8:1],{8}6,5-1[8:1],,5,{4}4-8[8:1],
{8}4,3-7[8:1],,3,{4}2b,8/1,
{8}7<5[8:1],8p4[8:1],7,8,1q5[8:1],2>4[8:1],1,2,
{4},E7,C,E3,
{1}5qq3>7[1:1],
7qq5>1[1:1],
1p5<1[1:1],
1>5p1[1:1],
1<6q4[1:1],
4>1q7[1:1],
7s3[4:5],
,{8}1/7h[8:7],
1,1,1,1,1,1,1,
,3/1h[4:3],3,3,3,3,3,3,
,5/3h[4:3],5,5,5,5,5,5,
,7/5h[4:3],7,7,7,7,7,7,
,8/6h[4:3],8,8,8,8,8,8,
,2/8h[4:3],2,2,2,2,2,2,
,4/2h[4:3],4,4,4,4,4,4,
,6/4h[8:5],6,6,6,6,{4}6b-2b[8:1],
{1}6b/Cf,
{4},2b/B6/Cf/B5f,{8},7b/Cf/B3/B4,{4},{1}3b/B8/B7/Cf,
{4},6b/B1/B2/Cf,{8},Cf/B7/B8/B1/B2/B3/B4/B5/B6,{4},{2}4b/6b-8b[8:1],
5b/3b-1b[8:1],
{4}4b/5b-8b[8:1],5b,5b/4b-1b[8:1],4b,
{16}8b,7,6,5,1b,2,3,4,5/1b,6,7,8,{4}1/5b,
2-7[8:1]/6-3[8:1],2/6,3/7,1/5,
3h[8:1]/7h[8:1],{8}3x,{24}3,2,1,{8}7,{24}7,6,5,{8}2,{24}2,1,8,
{8}6,{24}6,5,4,{8}1,{24}1,2,3,{8}5,{24}5,6,7,{8}2,2,
{4}2/6,2/8-4[8:1],8/2-6[8:1],2,
{8}7h[8:1],4h[8:1],6h[8:1],3h[8:1],{4}5h[4:1],1b,
{8}5x,{24}5,6,7,{8}1,{24}1,2,3,{8}6,{24}6,7,8,{8}2,{24}2,3,4,
{8}7,{24}7,8,1,{8}3,{24}3,4,5,{16},,{8}7,7,7,
{4}1/7,7-3[8:1],7/1-5[8:1],1,
{8}2h[8:1],5h[8:1],3h[8:1],6h[8:1],{4}4h[4:1],8b,
{8}4,{24}4b,3,2,{8}8,{24}8b,7,6,{8}3,{24}3b,2,1,{8}7,{24}7b,6,5,
{8}2,{24}2b,1,8,{8}6,{24}6b,5,4,{16},,{8}1,2,3,
{4}7-3[8:1],8-4[8:1],1-5[8:1],2-6[8:1],
,{8}7h[8:1],2h[8:1],6h[8:1],3h[8:1],{4}5b,
{8}8,{24}8b,1,2,{8}4,{24}4b,5,6,{8}1,{24}1b,2,3,{8}5,{24}5b,6,7,
{8}2,{24}2b,3,4,{8}6,{24}6b,7,8,{8}3,{24}3b,4,5,{8}7,{24}7b,8,1,
4b,5,6,7,8,1,2,3,4,5,6,7,8,1,2,3,4,5,6,7,8,1,2,3,
{4}4/Cf,{2},{4}1-4[8:1],
1/5-8[8:1],5/2-7[8:1],2/6-1[8:1],6/3-8[8:1],
3/7-4[8:1],{8}7/2-5[8:1],2,2/6-1[8:1],6,{4}6b,
4-1[8:1],4/8-5[8:1],8/2-7[8:1],2/6-3[8:1],
6/8-4[8:1],{8}8/6-2[8:1],6,6/4-8[8:1],4,{4}4b,
7-2[8:1],7/3-6[8:1],3/5-8[8:1],5/1-4[8:1],
1/6,{8}4x/5x,3,5/4,6,{4}5pp8[1:1]/4qq1[1:1],
{1},{4},,{8}2/7,
2/7,3/6,3/6,
4-2[8:1],4,4/6-8[8:1],6,6/2-5[8:1],2,2/7-4[8:1],7,
7/8-3[8:1],8,8/6-1[8:1],6,6/2-5[8:1],2,{4}2b,
{8}8-6[8:1],8,8/4-2[8:1],4,4/7-4[8:1],7,7/2-5[8:1],2,
2/6-1[8:1],6,6/3-8[8:1],3,3/7-4[8:1],7,{4}7b,
{8}5b/3,3,4b/6,6,{16}2b,7,2,7,1b,8,1,8,
{32}1b,2,3,4,5,6,7,8,1,2,3,4,5,6,7,8,1bx,2bx,3bx,4bx,5bx,6bx,7bx,8bx,1bx,2bx,3bx,4bx,5bx,6bx,7bx,8bx,
{1}1bx/Cf,
{4},E3,C,E7,
{1}1>4p7[1:1],
7<3q8[1:1],
8>3p6[1:1],
6>2q7[1:1],
7<3q1[1:1],
1>6p8[1:1],
8z4[4:7],
