&title=神鸣
&artist=Rígr feat. 光吉猛修
&first=-0.08
&des=CupLid
&lv_5=14+
&des_5=CupLid
&inote_5=(205)
{16},,,,
,,,,
,,,,
1s5b[8:1],,,,
{16},,,,
,,,,
,,,,
,,,,
{16},,,,
,,,,
,,,,
6,,5,,
{16}3,,4,,
5,,6,,
3h[4:5],,,,
,,,,
{16},,,,
,,,,
,,,,
C,,,,
{16},,,,
,,E6,,
E5,,E4,,
,,,,
{16},,,,
,,,,
,,,,
3,,4,,
{16}6,,5,,
4,,3,,
6h[4:5],,,,
,,,,
{16},,,,
,,,,
,,,,
E5hf[16:1],,,,
{16},,,,
,,,,
,,,,
7/4,,6,5,
{16}6,,7,,
3,4,3,,
2/5h[4:1],,,,
{32}A1f,D1,A8,D8,A7,D7,A6,D6,
{32}A5,D5,A4,D4,A3,D3,A2,D2,
A1f,D1,A8,D8,A7,D7,A6,D6,
A5,D5,A4,D4,A3,D3,A2,D2,
A1hf[32:1],D1,A8h[32:1],D8,A7h[32:1],D7,A6h[32:1],D6,
{32}A5h[32:1],D5,A4h[32:1],D4,A3h[32:1],D3,A2h[32:1],D2,
A1hf[32:1],D1,A8h[32:1],D8,A7h[32:1],D7,A6h[32:1],D6,
A5h[32:1],D5,A4h[32:1],D4,A3h[32:1],D3,A2h[32:1],D2,
A1hf[32:1],D1h[32:1],A8h[32:1],D8h[32:1],A7h[32:1],D7h[32:1],A6h[32:1],D6h[32:1],
{32}A5h[32:1],D5h[32:1],A4h[32:1],D4h[32:1],A3h[32:1],D3h[32:1],A2h[32:1],D2h[32:1],
A1hf[32:1],D1h[32:1],A8h[32:1],D8h[32:1],A7h[32:1],D7h[32:1],A6h[32:1],D6h[32:1],
A5h[32:1],D5h[32:1],A4h[32:1],D4h[32:1],A3h[32:1],D3h[32:1],A2h[32:1],D2h[32:1],
A1hf[32:1],D1h[32:1],A8h[32:1],D8h[32:1],A7h[32:1],D7h[32:1],A6h[32:1],D6h[32:1],
{32}A5h[32:1],D5h[32:1],A4h[32:1],D4h[32:1],A3h[32:1],D3h[32:1],A2h[32:1],D2h[32:1],
{16}8xz4[4:1],,,,
,,,,
3x,,3x,,
{16}5,,2,4,
3,,3,,
5/2,,,,
6,,6,,
{16}4,,7,5,
6,,6,,
4/7,,,,
7,,7,,
{16}5,,5,,
4,,4,,
2,3,2,3,
2-6[8:1],,,,
{16}2/4-8[8:1],,,,
4/1w5[8:1],,,,
1b,,,,
7h[8:1]/3h[8:1],,,,
{16}6h[8:1]/4h[8:1],,,,
5h[8:1]/3h[8:1],,,,
6h[8:1]/2h[8:1],,,,
8h[8:1]/4h[8:1],,,,
{16}6h[8:1]/5h[8:1],,,,
4h[8:1]/3h[8:1],,,,
5h[8:1]/1h[8:1],,,,
6,,6,,
{16}4,,4,,
7,,7,,
2,,2,,
8,,8,,
{16}3,,3,,
6,,6,,
4,,4,,
7h[8:1]/3h[8:1],,,,
{16}6h[8:1]/5h[8:1],,,,
7h[8:1]/1h[8:1],,,,
4h[8:1]/3h[8:1],,,,
2h[8:1]/6h[8:1],,,,
{16}3h[8:1]/4h[8:1],,,,
2h[8:1]/8h[8:1],,,,
5h[8:1]/6h[8:1],,,,
4,,4,,
{16}7,,7,,
2,,2,,
5,,5,,
3,4,3,4,
{16}2-6[8:1],,,,
4w8[8:1],,,,
,,,,
2h[8:1]/6h[8:1],,,,
{16}3/5h[8:1],,3,,
6/4h[8:1],,6,,
3h[8:1]/7h[8:1],,,,
1h[8:1]/5h[8:1],,,,
{16}3/4h[8:1],,3,,
6/5h[8:1],,6,,
4h[8:1]/8h[8:1],,,,
3,,2,,
{16}5/1,,6,,
2/7,,3,,
7/4,,5,,
6/3,,7,,
{16}4/8,,3,,
7/2,,6,,
5/3,,2,,
1h[8:1]/5h[8:1],,,,
{16}3/4h[8:1],,3,,
2/8h[8:1],,2,,
5h[8:1]/6h[8:1],,,,
7h[8:1]/3h[8:1],,,,
{16}6/5h[8:1],,6,,
7/1h[8:1],,7,,
4h[8:1]/3h[8:1],,,,
5/2,,5/2,,
{16}4<7[8:1],,1>4[8:1],,
4,,1,,
8-4[8:1],,2-6[8:1],,
8,,2,,
{16}5x,,5x,,
6>2[8:1]/5V31[8:1],,6/5,,
,,,,
E1h[2:7],,,,
{16},,,,
,,,,
,,,,
,,,,
{16},,,,
,,,,
,,,,
E8h[2:3]/E2h[2:3],,,,
{16},,,,
,,,,
,,,,
,,,,
{16},,,,
,,,,
,,,,
6,5,6,5,
{16}7<3[8:1],,,,
3-7[8:1],,1,,
,,,,
2,1,2,1,
{16}3>7[8:1],,,,
7-3[8:1],,5,,
,,,,
6,,6,5,
{16}6,,6/4,,
7,,7,,
7/1,,,,
3,,3,4,
{16}3,,3/5,,
2,,2,,
2/8,,,,
3,4,3,4,
{16}2>6[8:1],,,,
6-2[8:1],,8,,
,,,,
7,8,7,8,
{16}6<2[8:1],,,,
2-6[8:1],,4,,
,,,,
3,,3,4,
{16}3,,3/5,,
2,,2/8,,
2/8,,,,
6,,6,5,
{16}6,,6/4,,
7,,7/1,,
7/1,,,,
2<6[16:3],3,4,5,
{16}6,,,,
1<5[16:3],2,3,4,
5,,,,
8<4[16:3],1,2,3,
{16}4,,,,
1,2,3,4,
7/5,,,,
8V24[16:3],7,6,5,
{16}4,,,,
1V35[16:3],8,7,6,
5,,,,
2V46[16:3],1,8,7,
{16}6,,,,
1,8,7,6,
5/3,,,,
1/2>7[4:1],3,4,5,
{16},,,,
1>6[4:1],2,3,4,
,,,,
8>5[4:1],1,2,3,
{16},,,,
1,8,7,6,
5,4,3,2,
1/5,,5,,
{16}4/2,,2,,
5/3,,5,,
3,4,3,4,
2,,6,5,
{16}6,,7,,
3,4,3,,
6/2,,6/2,,
1,2,3,4,
{16}6-1[8:1]/5-2[8:1],,,,
6/5,,,,
,,,,
1/2h[4:1],,,,
{16}8h[4:1],,,,
3h[8:1],,4h[8:1],,
5h[8:1],,6h[8:1],,
1,2,3,4,
{16}6-2[8:1]/5-1[8:1],,,,
6/5,,,,
,,,,
2/1,,2/1,,
{16}3,4,5,,
8/7,,8/7,,
6,5,4,,
1,2,3,4,
{16}6z2[8:1]/5s1[8:1],,,,
6/5,,,,
,,,,
2h[16:1]/1h[16:1],,2h[16:1]/1h[16:1],,
{16}3h[16:1]/7h[16:1],,7h[16:1]/3h[16:1],,
6h[16:1]/2h[16:1],,6h[16:1]/2h[16:1],,
7h[16:1]/8h[16:1],,8h[16:1]/7h[16:1],,
1,2,3,4,
{16}6s2[8:1]/5z1[8:1],,,,
6/5,,,,
8x/3x,,8x/3x,,
{12}7,7,5,
{12}6,6,4,
5,5,3,
4,4,2,
{16}3w7[2:3],,,,
{16},,,,
,,,,
,,,,
,,,,
{16},,,,
,,,,
,,,,
1w5[4:5],,,,
{16},,,,
,,,,
,,,,
,,,,
{16},,,,
,,,,
C,,,,
6h[12:1]/5h[6:1],,,,
{16}6h[6:1]/5h[12:1],,,,
6h[12:1]/5h[6:1],,,,
7/4,,,,
3h[12:1]/4h[6:1],,,,
{16}3h[6:1]/4h[12:1],,,,
3h[12:1]/4h[6:1],,,,
2/5,,,,
{12}6,5,6,
{16}7/4,,,,
{12}3,4,3,
{16}5/2,,,,
{12}7/4,6,5,
{16}4/7,,,,
{12}2/5,3,4,
{16}5/2,,,,
1s5b[8:1],,,,
{16},,,,
,,2/6,,
Cf,,,,
{12}3bx/7bx,3bx/7bx,3bx/7bx,
{16}7bx/3bx-8[8:1],,,,
3/6b>3[8:1],,,,
6/1b-5[8:1],,,,
1/7b-4[8:1],,,,
{16}7/3b,,,,
{12}1bx/5bx,1bx/5bx,1bx/5bx,
{16}1bx/5bx,,,,
3b/7b<4[8:1],,,,
{12}2bx,2bx,2bx,
{16}1b/2bx-6[8:1],,,,
8b<5[8:1],,,,
8/3b>8[8:1],,,,
{12}3/4bx,4bx,4bx,
{16}4bxw8[8:1],,,,
,,,,
{12}6b/2>6[8:1],,7,
{32}7b/D3,D4,D5,D6,,,,,
{16}8b-4[8:1],,,,
{12}8/4b,,2,
2b-6[8:1],,7,
{16}7b<3[8:1],,,,
{96}1b/D7,,,D6,,,D5,,,D4,,,,,,,2,,,,,,,,
{16}2b>6[8:1],,,,
{32}D3/8b-3[8:1],D4,D5,D6,,,,,
{16}1b/8<4[8:1],,,,
{32}D8/2b-6[8:1],D7,D6,D5,,,,,
{16}2/1b,,,,
{12}8bx,8,8,
{12}6bx,6,6,
4bx,4,4,
2bx,2,2,
{16}8/2,,,2/4,
{16},,4/6,,
{24}2,1,8,7,6,5,
{16}8/4,,,6/4,
,,4/2,,
{24}2,3,4,5,6,7,
{16}8b,8b,8b,8b,
8b,8b,8b,8b,
8-4[4:3],,,,
{16},,,,
,,,,
,,,,
,,,,
{16},,,,
,,,,
,,,,
A8h[1:8]/A1h[1:8]/D8h[1:8]/D2h[1:8]/E8h[1:8]/E2h[1:8]/A7h[1:6]/A2h[1:6]/B7h[1:6]/B2h[1:6]/Ch[1:4]/E7h[1:4]/E3h[1:4]/D7h[1:4]/D3h[1:4]/B6h[1:2]/B3h[1:2]/A6h[1:2]/A3h[1:2]/B1h[1:8]/B8h[1:8]/E1h[1:9]/D1h[1:8],,,,
{16},,,,
,,,,
,,,,
,,,,
{16},,,,
,,,,
,,,,
,,,,
{16},,,,
,,,,
,,,,
,,,,
{16},,,,
,,,,
,,,,
,,,,
{16},,,,
,,,,
,,,,
,,,,
{16},,,,
,,,,
,,,,
,,,,
{16},,,,
,,,,
,,,,
,,,,
{16},,,,
,,,,
,,,,
,,,,
{16},,,,
,,,,
,,,,
1>8[4:3],,,,
{16},,,,
,,,,
,,,,
1h[1:1],,,,
{16},,,,
,,,,
,,,,
2>1[4:3],,,,
{16},,,,
,,,,
,,,,
2h[1:1],,,,
{16},,,,
,,,,
,,,,
3<2[4:3],,,,
{16},,,,
,,,,
,,,,
3h[1:1],,,,
{16},,,,
,,,,
,,,,
4<3[4:3],,,,
{16},,,,
,,,,
,,,,
4h[1:1],,,,
{16},,,,
,,,,
,,,,
5<4[4:3],,,,
{16},,,,
,,,,
,,,,
5,,5,,
{16}6,,6,,
4,,6/4h[8:3],,
,,,,
5,,5,,
{16}4,,4,,
6,,6/5h[8:3],,
,,,,
4,,4,,
{16}3,,3,,
2,4,2,4,
1,4,1,4,
8>3[8:1],,,,
{16}8<5[8:1],,,,
8,,,,
4,,,,
3/5,,3,,
{16}6/4,,6,,
3/5,,3,,
6/4,,6,,
3/5,,2,,
{16}4/6,,7,,
5/3,,2,,
6/4,,7,,
1/3,,4,,
{16}5/6,,7,,
8/3,,2,,
6/1,,7,,
8/4,,4/8,,
{16}3/7,,7/3,,
6/2,,6/2,,
5/1,,5/1,,
7h[4:3]/3h[4:3],,,,
{16},,,,
,,,,
,,,,
{64}A1h[6:1],D2h[6:1],A2h[6:1],D3h[6:1],A3h[6:1],D4h[6:1],A4h[6:1],D5h[6:1],A5h[6:1],D6h[6:1],A6h[6:1],D7h[6:1],A7h[6:1],D8h[6:1],A8h[6:1],D1h[6:1],
{64}A1h[6:1],D2h[6:1],A2h[6:1],D3h[6:1],A3h[6:1],D4h[6:1],A4h[6:1],D5h[6:1],A5h[6:1],D6h[6:1],A6h[6:1],D7h[6:1],A7h[6:1],D8h[6:1],A8h[6:1],D1h[6:1],
{16}A1h[4:1],,,,
,,,,
6,5,3,4,
{16}6,5,3,4,
7,6,2,3,
7,6,2,3,
7,6,5,4,
{16}3,4,5,6,
5,4,3,2,
3,4,5,6,
8,7,1,2,
{16}8,7,1,2,
7,6,2,3,
7,6,2,3,
6,5,2,1,
{16}7,8,3,4,
6,5,2,1,
7,8,3,4,
5/6,,6/5,,
{16}7-3[8:1],,3-7[8:1],,
7-5[8:1],,5-1[8:1],,
4,,2h[4:1],,
,,,,
{16}8/3,7,6,5,
4/2,,2,,
3/5,,5,,
3,4,2,5,
{16}1,6,8,7,
5,6,4,7,
3,8,2,1,
3b-7[8:1],,,,
{16}3b/5-1[8:1],,,,
5b/8w4[8:1],,,,
8b,,,,
2/1,3,4,5,
{16}6/8,5,4,3,
2/1,3,4,5,
6/7,5,4,3,
2/5,6,7,8,
{16}1/2,8,7,6,
5/4,6,7,8,
1/3,8,7,6,
5/4,3,2,1,
{16}7/8,1,2,3,
4/5,3,2,1,
8/6,1,2,3,
4/7,6,5,4,
{16}1/3,4,5,6,
8/7,6,5,4,
3/2,4,5,6,
7/1,,,1/3>5[16:5],
{16},,3h[8:5],,
,,,,
,,,,
4,5,6,7,
{16}4,3,2,1,
8/7,,8/7,,
6/1,,6/1,,
2/4w8[8:1],,,,
{16},,,,
{12}2bx/6bx,2bx/6bx,2bx/6bx,
{16}2bx/6bx,,,,
7/3,,7/3,,
{16}8/4,,8/4,,
{32}1,2,3,4,5,6,7,8,
1,2,3,4,5,6,7,8,
{16}1/5,,,,
{16}4w8[8:1],,,,
,,,,
,,,,
7h[8:1]/6h[8:1],,,,
{16}5h[8:1]/4h[8:1],,,,
3h[8:1]/2h[8:1],,,,
8h[8:1]/1h[8:1],,,,
3/7,,,,
{16}5w1[8:1],,,,
,,,,
3,7,4,6,
5-2[8:1],,,,
{16}5/8-4[8:1],,,,
8/1w5[8:1],,,,
1,,,,
2-6[8:1],,,,
{16}1-5[8:1],,,,
8-4[8:1],,,,
7-3[8:1],,,,
2q6[8:1],,,,
{16}1q5[8:1],,,,
8p4[8:1],,,,
7p3[8:1],,,,
2>5[8:1],,2,,
{16}1q6[8:1],,1,,
8p3[8:1],,8,,
7<4[8:1],,7,,
2,1,8,7,
{16}3,2,1,8,
4,3,2,1,
5,6,7,8,
{64}A4h[6:1],D4h[6:1],A3h[6:1],D3h[6:1],A2h[6:1],D2h[6:1],A1h[6:1],D1h[6:1],A8h[6:1],D8h[6:1],A7h[6:1],D7h[6:1],A6h[6:1],D6h[6:1],A5h[6:1],D5h[6:1],
{64}A4h[6:1],D4h[6:1],A3h[6:1],D3h[6:1],A2h[6:1],D2h[6:1],A1h[6:1],D1h[6:1],A8h[6:1],D8h[6:1],A7h[6:1],D7h[6:1],A6h[6:1],D6h[6:1],A5h[6:1],D5h[6:1],
{16}A4h[4:1],,,,
,,,,
6,5,6,5,
{16}4/7,,7,,
3,4,3,4,
2/5,,2,,
7,8,7,8,
{64}A6h[6:1],D6h[6:1],A5h[6:1],D5h[6:1],A4h[6:1],,,,,,,,,,,,
{12}1,1,1,
5,5,5,
{24}2,3,4,1,2,3,
{24}7,6,5,8,7,6,
{64}A1h[6:1],D2h[6:1],A2h[6:1],D3h[6:1],A3h[6:1],D4h[6:1],A4h[6:1],D5h[6:1],A5h[6:1],D6h[6:1],A6h[6:1],D7h[6:1],A7h[6:1],D8h[6:1],A8h[6:1],D1h[6:1],
{16}A1h[1:2],,,,
,,,,
{16},,,,
,,,,
,,,,
,,,,
{16},,,,
,,,,
,,,,
{32}8b/1b,7b/2b,6b/3b,5b/4b,
