&title=GRISAILLE
&artist=SOUND HOLIC
&des=NaOH
&first=0.06
&des_5=NaOH
&lv_5=14
&clock_count=4
&inote_5=(196){4},,,,,,,,
{8},6h[8:3]/2,,,2h[4:1],,4h[4:1],,1h[4:1],,7h[4:1],,5h[4:1],,
8h[4:1],,3h[4:1],,4h[4:1],,2h[4:1],,8h[4:1],,4h[4:1],,
5,5,3,3,7-4[8:1],1,7,3h[8:3],,,
7h[4:0],5,7h[4:0],3,6h[4:0],1,6h[4:0],4,
8h[4:0],2,8h[4:0],4,6h[4:0],1,24,3,45,6,78,1,
{16}2,4,3,5,2,,34,,4b/5b,,,,56,,4b>1[8:1]/8b<5[8:1],,
,,{8}4bx/8bx,,3,2h[4:1]/6,,4-1[8:1],5,4,,7-4[8:1],3,7,,{16}6,5,6,,
7<4[8:1]/4,,74,,,,3,,2h[4:1],,,,{8}1-4[8:1],8,
1,,6-1[8:1],5,6,,{16}3,4,3,,2>5[8:1]/5,,25,,,,{8}7,8h[4:1],,
1-6[8:1],7,1,,5-2[8:1],8,5,,{16}7,8,7,,
6<1[8:1]/1,,16,,,,3,,{8}4h[4:1],,{16}6,5,6,,47,,
||s5/4
{16}
7x-4[8:1],,,,3x-8[8:1]/A7,,,,7x-2[8:1]b*-4[8:1]b/A3,,,,A7f,,
,,,,
||s4/4
{4}
3x,3,3,3,5V71[4:2]/3,3,3,3,
3/7h[8:3],3,6h[4:1]/3,3,
{8}5-8[8:1]/3,5,3,3,4-1[8:1],4,6,6h[4:1],,
8,7,16,2,5,4,57,6,5,47,8,2,1-5[8:1],7h[8:3],1,,
4,3,25,1,6,5,47,8,17,2,34,2,{16}27,36,4-1[8:1]/5,,,,
{8}4bx/5bx,,6,,6,,6,,6/E2,,6/E3,,6/E4,,6/E5,,
6h[8:3]/B3,,E4,,6h[4:1]/E2/B2,,A1,,
1x/8x,18,27,27,36,36,5-8[8:1]/4,45,,
3,4,56,7,3,4,25,1,78,6,45,3-5[8:1],8V61[4:1],3,8,,
4,3,25,1,28,3,4,5-3[8:1],6,57,8,2b,4bh[4:1]/5bh[4:1],,,
{16}2x>5[8:1]/8x,,2x/8x,,,,6x,7,8,,,,2x>5[8:1]b/8x,,2x/8x,,
,,7x,8,1,,,,E2/B1/B8/E8/Cf,,,,,,,,
6x-2[8:1]/2x,,6x/2x,,,,1x,8,7,,,,6x-2[8:1]b/2x,,6x/2x,,
,,3x,4,5-2[8:1],,,,1,,8,,7h[8:1],,,,
{16}5-1[8:1],,,,8,,7,,26,,3,,48,,7,,56,,4,,
34,,25,,1,,28,,37,,46,,
{16}4,5,4>1[8:1],5,4,5,4bx<7[8:1],,,,4bqq5[8:3],,,,4b,,,,
,,,,6,,7,,8>5[4:1],,,,
7b/8b,,,,6,,7h[4:1],,,,6-1[8:1],,,7,6,,
4,,3<8[4:1],,,,1,,2h[4:1],,,,3,,4-8-2[4:1],,,,
4b/7b,,6,,6h[4:1],,,,7>4[16:3],,,4v1[8:1]b,,,5,,6w2[8:1],,,,6b,,,,
65,,8-4[8:1]/3-1[8:1],,,,3b/8b,,,,
6<1[8:1]/5,,56,,,,3,,3,4,2,,15,,2-6[8:1],,8,,2,,7,,
5,6,5,6,4,5,4,5,3,4,3,4,2,1,3,8,4-1[8:1],,6V47[4:1],,4b,,6b,,,,
1,2,3,,3x/4x,,25,,1<4[4:1]/6,,,,
1b/2b,,,,3,,2h[4:1],,,,3-7[8:1],,,2,3,,1,,
1>5[4:1],2>6[4:1],3<7[4:1],4<8[4:1],A1,A2,A3,A4,1x,2x,3x,4x,
5-1[8:1]b,,,,
8-6[8:1],,8,,2,,3,,7-5[8:1],,7,,2,,1,,
6-4[8:1],,6,,1,,8,,{24}7xbv4[8:1],8,1,2,3,4,7bx,,,,,,
{16}2h[16:3],,,4,3,,25,,7h[16:3],,,5,6,,47,,
2h[16:3],,,1,3,,48,,6h[16:3],,,5,7,,26,,
3,7,3,7,4,8,4,8,5,7,5,7,4,6,4,6,3,7,3,7,1,5,1,5,
{32}1b-5[8:1],2,3,4,8b-2-7-3-6-4-8[8:31]b,7,6,5,1bx,,,,
{8}A8f/D1/D8,,,,,,,,,{4},,,,1xh[4:1],,1x,1xh[4:1],,1x,1xh[4:1],,
1-3[8:1],8,7-1[8:1],6,5-7[8:1],4,3-5[8:1],2,1-5[8:1],7,
7-3[8:1],{8}2,1xb-4[8:1]*-6[8:1],,1b,,8b-3[8:1]b*-5[8:1]b,,8b,,,
{16}3x,4,3,4,2x,5,2,5,1x,6,1,6,8x,7,8,7,
1x,5,1,5,2x,6,2,6,3x,7,3,7,4x,8,4,8,
3xh[4:1]/7x,,7,6,5xh[4:1],,8,1,2xh[4:1],,
6,5,4xh[4:1],,1,2,3xh[4:1],,7,6,5xh[4:1],,
1,,1,,{24}15,26,37,48,,,8bxh[8:3],,,,,,1,,,
{16}2,3,7,6,2,3,7,6,3,4,6,5,3,4,6,5,
2,3,7,6,2,3,7,6,1,2,8,7,
{24}1,2,3,7,6,5,2,3,4,8,7,6,2,3,4,1,2,3,7,6,5,8,7,6,
{32}1,2,3,4,5,6,7,8,
1pp8<5pp4>1<1[4:16]b,2,3,4,5,6,7,8,
{4}1b,{8},{48}A6f,E6,B5,B4,E4,A3,
{4},,,,,,,,,,,,,,,,
{4}E2,B6,D4,A8,E3,B6,E2,{8}E6,3,3,3,34,34,34,34,
{16}25,,1,8,2,,6,5,7,3,4,,26,,
8b<5[8:1]/4b>1[8:1],,,,4b/8b,,,,
3-8[8:1]/7,,15,,,,6-1[8:1],,,2,6,,4,,
8<4[4:1]*<3[16:5]*<2[16:6]*<1[16:7]/4,73,62,51,
A8,A7,A6,A5,8x,7x,6x,5x,4-8[8:1]b,,,,
1-3[8:1],,2,,7-5[8:1],,6,,1-3^4-8[4:1]b,,2,,7,,6,,
5<7[8:1],,1,,2,,3,,
{24}4b-7b[8:1]/8b-3[8:1],37,26,15,,,4b/8b,,,,,,
{16}1,8,1,8,2,,37,,6,5,7,5,6,,48,,
3,4,2,5,3,,47,,6,5,7,4,8,,27,,
3,4,3,4,2,5,2,5,4,7,4,7,3,6,3,6,
1,8,2,7,1,8,2,7,
{32}1bx,2,3,4,1bx-5[8:1],8,7,6,1bx,2,3,4,
1bxs5V71[8:13]b*s5V31[8:13]b/Cf,,,,{4},,,,,,,,
3h[2:1],B4,5h[2:1],B6,1h[4:1],E7,
{8}6,6-1[8:1],5,5b/6b,,
{16}3,4,2,,1-5[8:1],,1,,6-8[8:1],,6,,2-4[8:1],,2,,
5,,5,,2,,3,4,3,,2>5[8:1]/5,,25,,,,
8,,8,,17,,3,4,2,6,5,7,1bw5[8:1],,,,1b,,,,
8bw4b[8:1],,,,8b,,,,1x,1x,
{8}1xpp1[4:5]`1!qq1[4:5]b,,,,,,,,,,,,,,
4b/5b,2b/7b,,
