&title=中華急行
&artist=Ryu☆
&first=0
&des=紅音サカ超特急
&lv_5=14
&inote_5=(171)
{1},
{1},
{8}7,8,1,2,3,4,5,6,
{8}2,1,8,7,6,5,4,3,
{8}7,8,71,2,73,4,75,6,
{8}2,1,28,7,26,5,24,3,
{8}7,8,71,2,73,4,{16}7,5,6,,
{8}2,1,28,7,26,5,{16}2,4,3,,
{16}7,8,7,1,7,2,7,3,8,4,8,5,8,6,8,,
{16}2,1,2,8,2,7,2,6,1,5,1,4,1,3,1,2,
{1}1bw5[2:1],
{8}62,,64,3,62,,63,2,
{8}61,2,63,2,64,3,62,3,
{8}74,,74,3,72,{16}2,3,{8}74,4,
{8}73,2,71,2,73,{16}5b,5,{8}5,64,
{8}37,,35,6,37,,36,7,
{8}38,7,36,7,35,6,37,6,
{8}25,,25,6,27,{16}7,6,{8}25,5,
{8}1b/4,2b/5,3b/6,4b-8[8:1]/7,5b/8w4[8:1],,,,
{8}6/1-3[8:1],,6/1-5[8:1],7,8/1-3[8:1],,6/1-5[8:1],7,
{8}8/1-3[8:1],8,7/1-5[8:1],7,6/1-3[8:1],7,1/8-4[8:1],7,
{8}3/8-6[8:1],,3/8-4[8:1],2,1/8-6[8:1],{16}1,2,{8}3/8-4[8:1],3,
{8}1/8-6[8:1],1,2/8-4[8:1],2,3/8-6[8:1],{16}3,2,{8}8/1-5[8:1],1,
{8}6/1b-3[8:1],,6/1-5[8:1],7,8/1-3[8:1],,1/8-4[8:1],7,
{8}1/8b-6[8:1],1,2/8-4[8:1],2,3/8-6[8:1],2,8/1w5[8:1],2,
{8}1b,,64,73,82,{16}1,1,{8}1-5[8:1],8-6[8:1]/2,
{8}1b-3[8:1],8b-4[8:1],1b<2[8:3],8b,1b-5[8:1],,1b,,
{8}5h[4:1]/1h[8:1],,{16}1<5[4:1],2,3,4,{8}15,3,1h[8:3],5h[8:1],
{8},{16}5,6,{8}7>5[8:3],6,5,6,7h[8:1],,
{8}4h[4:1]/8h[8:1],,{16}8>4[4:1],7,6,5,{8}84,6,8h[8:3],4h[8:1],
{8},{16}4,3,{8}2<4[8:3],3,4,3b,2b,,
{8}5h[4:1]/1h[8:1],,{16}1-5[8:1],8,7,6,{8}15,3,1h[8:3]/6,5h[8:1],
{8},{16}6,7,{8}8>6[8:3],7,6,7,8h[8:1],,
{8}4h[4:1]/8h[8:1],,{16}8-4[8:1],1,2,3,{8}84,6,8h[8:2]/3,4h[8:1],
{8},{16}3,2,{8}1,73,64,82,5b,,
{8}5h[8:1]/1h[8:1],,{16}5>1[4:1]/1,8,7,6,{8}15,7,5h[8:3],1h[8:1],
{8},{16}1,2,{8}3<1[8:3],3,2-6[8:1],1,2,,
{8}4h[8:1]/8h[8:1],,{16}4<8[4:1]/8,1,2,3,{8}84,2,4h[8:3],8h[8:1],
{8},{16}8,7,{8}6>8[8:3],6,7-3[8:1],8b,7b,,
{8}5h[8:1]/1h[8:1],,{16}5>1[4:1]/1,8,7,6,{8}1/5-8[8:1],7,5,1h[8:1],
{8}5h[8:1],{16}2,3,{8}4<2[8:3],4,3-7[8:1],2,3,,
{8}4h[8:1]/8h[8:1],,{16}4<8[4:1]/8,1,2,3,{8}8/4-1[8:1],2,4,8h[8:1],
{8},{16}1b,1b,{8}1b,8b/2b,5bw1[8:1],7b/3b,5b,,
{2}4<2[4:3]/2,3,
{2}5>7[4:3],6,
{8}5>2[4:1],6,7,,5>2[4:1],6,7,,
{8}5>2[4:1],6,7/5<2[4:2],6,5,,,,
{4}5>7[4:3],{8},6,6,,5,,
{4}4<2[4:3],{8},3,3,,4,,
{8}4<7[8:1],3,2/4b,3,4<7[8:1],3,2/4b,3,
{8}4b<7[8:1],3,2/4b>1[8:1],3,4b/6,,{16}8,8,8,8,
{1}7b/1w5[2:1],
{8}1-5[8:1]/3,5>2[8:1],16,,1-5[8:1],5>2[8:1],16,,
{8}1-5[8:1],5>2[8:1],1<6[8:1]/6,8,1bw5[8:1],,1b,,
{8}3-8[8:1]/7-4[8:1],26,37,,2-5[8:1]/6-1[8:1],15,26,,
{8}4-1[8:1]/8-5[8:1],1V38[4:1]/5V74[4:1],4b/8b,,,,2b/6b,,
{8}8-4[8:1]/6,4<7[8:1],83,,8-4[8:1],4<7[8:1],83,,
{8}8-4[8:1],4<7[8:1],8>3[8:1]/3,1,8bw4[8:1],,8b,,
{8}8-3[8:1],7,6-2[8:1],7,8-3[8:1],7,6,7,
{8}8b/4b,7b/3b,6b/2b,5b<8[8:1]/1b>4[8:1],4b-1[8:1]/8b-5[8:1],,,,
{8}8-4[8:1]/6,7/4<7[8:1],83,1,8-4[8:1],7/4<7[8:1],83,1,
{8}8-4[8:1],7/4<7[8:1],8>3[8:1]/3,1,8bw4[8:1],7,8b,,
{8}6-1[8:1]/2-5[8:1],73,62,,7-4[8:1]/3-8[8:1],84,73,,
{8}5-8[8:1]/1-4[8:1],8V61[4:1]/4V25[4:1],5b/1b,,,,7b/3b,28,
{8}1-5[8:1]/3,2/5>2[8:1],16,8,1-5[8:1],2/5>2[8:1],16,8,
{8}1-5[8:1],2/5>2[8:1],1<6[8:1]/6,8,1bw5[8:1],2,1b,,
{8}1-6[8:1],2,1/3-7[8:1],2,3/1-6[8:1],2,13,2,
{8}1b/5b,2b/6b,3b/7b,4b>1[8:1]/8b<5[8:1],5b-1[8:1]/1b-5[8:1],,,,
{1}3b/7b,
