&title=astral.exe
&artist=Synzak & Laxeno57
&first=0.078
&des=SakuM0_.adx
&lv_5=14
&des_5=马甲
&inote_5=(174){1},,
{1}C,,
{128}E4,E5,,,,,,,,,,,,,,,,,,,,,,,,,,,,,,,
{4},,,,,,,
{128}B5,B6,,,,,,,,,,,,,,,,,,,,,,,,,,,,,,,
{4},,,,,,,
{48}E3,E4,E5,,,,
{8},,,,,,,
{8}B6,,,E5,,,B3,,
{16}2pp5[8:5],,,,5,,,5,,,
{8}5,6,7,8<5[8:3],,,,,4,3,2,
{16}1pp4[8:5],,,,4,,,4,,,
{8}5,6,7,8>6[8:5],,,,,,3,,
{16}2pp5[8:5],,,,5,,,5,,,
{8}6,7,8,1<3[16:9],,,,,3,2,1,8V24[16:7],,,,,,,,
{16}5,6,5,6,
{32}5x,4x,3x,6x,7x,8x,
{16},1^3[16:1]b,1,1,1,1x>1[2:7],,,,
{1}1pp8[4:6],,5h[1:4],,
{4}E4,E5,E6,E7,E8,E1,E2,E3,
{8}3,3,5,5,
{16}2,6,2,6,1,7,1,7,8h[96:1],,
{8},,,,,C,,
{8}8x/1-5[8:1],,1/7,7x-4[8:1],,7,3,1,
{16}6h[32:1],5h[32:1],6h[32:1],,4,,
{16}3h[32:1],4h[32:1],2h[64:1],,
{24}1hx[48:1],2hx[48:1],3hx[48:1],4hx[48:1],5hx[48:1],,,,,
{8}1x/8-4[8:1],,8/2,2x-5[8:1],,2,6,7,
{16}2/5,,3,4,2,4,3,,2h[16:1]/8h[16:1],,
{48}D3,D4,D5,D6,D7,D8,,,,,,,
{8},
{8}8x/2-5[8:1],,2/7,7x^4[8:1],,7,3,1,
{16}6,,7/4,,2,1,2,
{16},3/8,,
{32}2hx[48:1],3hx[48:1],4hx[48:1],5hx[48:1],6hx[48:1],,,,
{8},
{8}1x/7-4[8:1],1/6,7,2x^5[8:1],,2,6,8,
{16}5/7,,6/4,,
{32}2,1/3,,,,,,,
{32}8,7,6,5,4,3,2,1,
{8}8x/C,2x,
{8}3x/8^3[8:1],,8/6,6x-1[8:1],,6,2,5,
{16}7/4,,6/3,,
{16}2,1/3,,,
{16}8/4,,
{32}7hx[48:1]/3hx[48:1],6hx[48:1]/2hx[48:1],5hx[48:1]/1hx[48:1],4hx[48:1]/8hx[48:1],,,,,,,,,
{8}6x/1^6[8:1],,1/3,3x-8[8:1],,3,7,5,
{16}2/5,,3/6,,4/8,2h/6h,,,
{16}2/6,
{48},,D2,D3,D4,D5,D6,D7,,
{8},,
{8}8x/2^5[8:1],,8/2,8x-4[8:1],,8,3,2,
{16}1/5,,8,7,8,,1/6,,2/5,,
{32}1hx[48:1]/4hx[48:1],2hx[48:1]/5hx[48:1],3hx[48:1]/6hx[48:1],4hx[48:1]/7hx[48:1],,,,,
{8},
{8}1h/7^4[8:1],1/6,7,1-5[8:1],,1,6,8,
{16}8/5,,7/4,,2,1/3,,,
{32}7,6,5,4,3,2,1,8,7x/C,,,,2x,,,,
{8}8,7/2-5[8:1],,2/8-3[8:1],,8/6-1[8:1],,6/4-7[8:1],,4/2,,
{16}1,,4,8,3,8,2h[4:1],,1,,
{8}6,7/5-2[8:1],,5/7-4[8:1],,7/1-6[8:1],,1/3,
{16}2h[8:1],,5,3h[8:1],,6,4h[8:1],,7,5h[8:1],,8,6h[8:1],,1,,8,,
{8}7/2-4[8:1],,8/2-8[8:1],,5/2-6[8:1],,2/7-4[8:1],,7/3,,
{16}2,,7,1,6,1,7h[4:1],,8,,5,,
{8}4/6-4[8:1],,1/6-8[8:1],,3/6-2[8:1],,6/2,
{16}3h[8:1],,5x,4h[8:1],,6x,5h[8:1],,7x,6h[8:1],,8xh[16:5],5,,
{8}4,3,1-4[8:1]/2-4[8:1],,1-7[8:1]*-6[8:1],,1-5[8:1],,1w5[8:1],,1,,7h[16:5],
{16}5-8[8:1],4,3,2,1h[8:1],,,,
{8}1,7-5[8:1]/8-5[8:1],,8-3[8:1]*-2[8:1],,8-4[8:1],,8,
{16}2h[8:1],,5,3h[8:1],,6,4h[8:1],,7,5h[8:1],,,
{8}8,7,5,6/4^6[8:1],,3/4^2[8:1],,7/4qq1[8:3],,8-5[8:1],,8,,
{16}2h[16:5],,4-1[8:1],5,6,7,8,,,,
{8}7,3/5^3[8:1],,6/5^7[8:1],,2/5pp8[16:5],,,1w5[8:2],,,,,,
{1}1-3-5-1[8:5]/5-7-1-6[8:5],
{8}B6,B2,B7,B3,B8,,,,
{1}8-6-4-7[8:5]/4-2-8v3[8:5],
{8}B3,B7,B2,B6,B1,,,,
{1}1-3-5-2[8:5]/5-7-1-6[8:5],
{8}E6,E2,E7,E3,E8,,,,
{1}8-6-4v6[8:5]/4-2-8v2[8:5],
{8}E3,E7,E2,E6,E1,,,,
{16}1-5[8:1],,,,1/5-3[8:1],,,,6,,,7,,,1,,
{16}2/8-4[8:1],,,,8/4-6[8:1],,,,3,,,2,,,8,,
{16}7/1-5[8:1],,,,1/5-2[8:1],,,,6,,,7,,,1,,
{16}2/8-4[8:1],,3,,8/4-7[8:1],,,,3,,,2,,,8,,1/7,,6,,
{8}2-5[8:1],2,5,6,7-3[8:1],7,3,2,
{8}1-5[8:1],1,6,7,8-4[8:1],8,4,3,
{16}3,4,2,5,1,6,8,7,1,2,3,4,2,3,4,5,6-4-1[2:1]/3-5-8[2:1],,
{8},,,,,A1/A8/D1/E1f,,
{16}8/1s5[8:1],,,,1/8x/C,,,,2-5[8:1],4,3,,2x/1,,8,,
{16}7/4-8[8:1],,3,,2x/4,,1,,2/6,,8,7,6x/C,5,4,,
{16}2-5[8:1],,,,2x/6,,7,,8/4,,2,3,4x/C,5,6,,
{8}4^7[8:1],3,2x,1^4[8:1],8,7,6x,5,
{8}4-8[8:1],3,2/4x,1,7-3[8:1],1-5[8:1],7x,1^4[8:1],,
{8}8,7x,6^1[8:1],4,3,2x,,
{8}3-5[8:1],3,3x/6,7-4[8:1],7,
{8}7x/3,2-5[8:1],2,2x/7,8,B8/C/B4,
{16}2,,3,4,3,4,1x,4,3,5x,1>5[8:1],,,,
{8}Cf,,8-4[8:1],7-5[8:1],8x,7,,
{8}2,1x,8>4[4:1],5,6,7x,8,
{8}1,3h[8:1],5x,3h[8:1],8,3h[8:1],6x,3h[8:1],
{8}7,8,C/1x<5[4:1],,4,3,2x,1,
{8}8h[8:3],5,6x,7,1-5[8:1],2-4[8:1],1x,2<5[8:3],,
{8}4,3x,2,1,8^6[12:1],1x,,
{16}1,,2,,3x,5,3,4,2,,5x,,6,4,6,5,
{16}7x,,2,4x,,7,5,,
{16}8,1,2,3,4/1x-5[8:1]*-4[8:1],2,3,4x,
{4}1-3-5-7-1[4:3]/B1/Cf/B5,,,,
{4}B2/B3/E3f,,,
{4}8-4[8:1]*z4[8:1],8-6-4-2-8[4:3]/B8/Cf/B4,,,,
{4}B7/B6/E7f,,,
{4}1z5[8:1]*s5[8:1],1-3-5-7-1[4:3]/B1/Cf/B5,,,,
{4}B2/B3/E3f,,,
{4}8z4[8:1]*v6[8:1],8-6-4-2-8[4:3]/B8/Cf/B5,,,,
{4}B7/B6/E7f,,Ch[4:1]f,B3/E3/B7/E7,
{16}3,,4,,2/5,,3,4,,4,3,,2/5,,4,,
{16}3,,4,,2/5,,3,4,,4,3,,2/5,,5,,
{16}6,,5,,4/7,,6,5,,5,6,,4/7,,5,,
{16}6,,5,,4/7,,6,5,,5,6,,4/7,,5,,
{8}4,3/5,5,4/6,3,2/5,6,7/4,
{8}3,2/4,6,7/5,3,1/5,6,8/4,
{16}5,6,4,7,3,8,2,1,2,4,2,5,1,6,8,7,
{16}1,8,7,6,5/8,7,6,5,4/3,2,1,8,7/5,6,7,8,
{1}1h[1:7]/5pp7pp1pp3pp5qq3qq1qq7qq5[8:47]*pp7pp1pp3pp5qq3qq1qq7qq5[8:47],
&lv_6=14
&des_6=谱师.exe未响应
&inote_6=(174){4},,,,,,,,3,
{16}5,,,4,,,{8}6,5,6,
4,3,{4}5h[2:1],,,6,
{16}4,,,5,,,{8}3,4,3,
5,6,{4}4h[2:1],,,3,
{16}5,,,4,,,{8}6,5,3,
4p1[4:3],6,{4}4,{32},,,,,,,,,,,,,,,,8x,
7xqq4[32:23],{16}6x,,,,,,,,,,,,,,,{8}2,
,,3,,,{4}4,
6h[16:7],{16}3,,,4,,,{8}7,5>1[2:1],6,
5,,,,,8,2,7,
{4}3h[16:7],{16}6,,,5,,,{8}2,4pp7[4:3],3,
{4}4,,,1,
6/2h[16:7],{16}4,,,5,,,{8}3,6q8[2:1],4,
6,,,,,2,1,3,
{1}8h[1:1],
{16}2v5[8:1],1,3,1,{8}2,6h[8:1],4h[8:1],{16}8,7,{4}6/2b,
{1}5pp8[2:7]/4qq1[2:7],
{4},,,,,,,,,,,,3xh[8:1],
4xh[8:1]/3xh[8:1],5xh[8:1]/4xh[8:1],5xh[8:1]/6xh[8:1],
{8}6,6,{16}4>2[8:1],5,4,5,,,,,E5,E6,{8}E7,
{16}1,8,1,8,2,7,2,7,3,6,3,6,4-8b[2:1],5,4,5,
{4}4bxh[2:1],{16},,,,,,,,3,5,3,5,
{24}2bx,1x,8x,7x<4[8:1],,,,,,7/8bx,1x,2x,{8}3x,6/E4,E5/7-5v3[2:1],8h[8:3]/E6,
,,,,{4}7h[8:1],{16}6,4,6,4,
{24}7bx,8x,1x,2x>5[8:1],,,,,,2/1bx,8x,7x,{8}6x,3/E6,E5/2<5[2:1],1h[8:3]/E4,
,,,,{4}2h[8:1],{16}4,3,5,4,
{24}6bx,7x,8x,1x>4[8:1],,,,,,1/8bx,7x,6x,{8}5x,3/E6,E5/2v4-6[2:1],1h[8:3]/E4,
,,,,{4}8h[8:1],{16}7<4[8:1],1,{8}8>3[8:1],
7,8-4[8:1],,4/8,,5/E3,E4/6<3[2:1],7h[8:3]/E5,
,,,,{4}6h[8:1],{8}5/4<7[8:1],4/5,
{24}3bx,2x,1x,8xv5[8:1],,,,,,1bx/8,2x,3x,{8}4x,6/E4,E5/7-5v2[2:1],8h[8:3]/E6,
,,,,{4}7h[8:1],{16}5,3,5,3,
{24}6bx,7x,8x,1xv4[8:1],,,,,,8bx/1,7x,6x,{8}5x,3/E6,E5/2<4[2:1],1h[8:3]/E4,
,,,,{4}3h[8:1],{16}1,2,1,2,
{24}8bx,7x,6x,5x<8[8:1],,,,,,4bx/5,3x,2x,{8}1x,7/E1,E2/6-4v1[2:1],5h[8:3]/E3,
,,,,{4}7h[8:1],{16}2>5[8:1],8,1<6[8:1],8,
{8}2,1-5[8:1],,5/1,,4/E7,E6/3>6[2:1],2h[8:3]/E5,
,,,,{4}3h[8:1],{8}5/4-8[8:1],4/5,
6b,6-1[8:1],,6/2q7[4:1],,8,6,4h[8:3],
{16},,,,8,1,2,3,5,6,7,8,{8}2/1-6[8:1],3,
4,4-8[8:1],,4/7-3[8:1],,1<5[4:1],,6h[8:3],
{16},,,,4,3,2,1,4,5,6,7,{8}1/8-4[8:1],2,
3,3-8[8:1],,3/7p2[4:1],,1,3,5h[8:3],
{16},,,,1,8,7,6,4,3,2,1,{8}7/8-3[8:1],6,
5,5-1[8:1],,5/2-6[8:1],,8>4[4:1],,3h[8:3],
{16},,,,5,6,7,8,5,4,3,2,{8}8/1-5[8:1],7,
6b,6-2[8:1],,6/3V51[4:1],,1-3[8:1],8,7h[8:3],
{16},,,,5,6,4,6,3,5,2,5,{8}1<6[8:1],1,
4,4-8[8:1]*-2[8:1],,4-6[8:1],,4/1-3[8:1],,1/7h[8:3],
{16},,,,4,3,2,1,4,5,6,7,{8}1/8-4[8:1],2,
3b,3-7[8:1],,3/6V48[4:1],,8-6[8:1],,2h[8:3],
{16},,,,4,3,5,3,6,4,7,4,{8}8>3[8:1],8,
5,5-2[8:1]*-8[8:1],,5,,7/3-8[8:1],,6/3,
5<3[8:3],,,3<7b[4:1],{2}4h[4:1],
{8}8b/1b,,,7/2pp5[8:7],,,,,{1}6<8[4:1],
{8}1/8,,,2/7pp6[8:7],,,,,{1}4-2[4:1],
{8}8/1,,,7/3qq4[8:7],,,,,{1}6-8[4:1],
{8}1/8,,,2/6q7[8:7],,,,,{1}4>2[4:1],
{4}1b/8b,{8}3/7,{16}6,5,,,{8}5,{4}4/6,
3,{8}2/5,5,{16}3-8[8:1],4,{8}3,{4}6,
7,{8}6/2,{16}3,4,,,{8}4,{4}5/3,
6b,{8}7/4,4,{16}6,5,6,4,5,3,4,3,
{8}5,2/6,3,{16}5,4,{8}5,3,6/2,5,
4,7/3,6,{16}4,5,{8}4,6,3/7,4,
{16}6,5,6,5,7,4,7,4,8,3,8,3,1>8[2:1],2,1,2,
{4}1bp4b[4:1],,,3-8[8:1]/7-4[8:1],
3b/7b,1/5,{16}2,4,3,8,{8}5-3[8:1],7,
5,6-2[8:1],2,6,1h[4:1],{16}3,4,5<1>3b[8:3],6,7,8,
{4}5/1>5[4:1],{8}5<1>3b[8:3],7,{4}1>5[4:1],{16}5,6,7,8,
{8}1-6[8:1],4,1,3-8[8:1],5,3,4-7[8:1],1,
4b,2-6[8:1],8,2,1,5<3[4:1],,7/5,
,5,6-1[8:1],4,6,2,3-8[8:1],4,
3/7,5-1[8:1],,5/2,{4}4-8[8:1],{8}1/4,7-4[8:1],
,7/1,{4}3,{16}2,4,3,5,4,6,5,7,
{4}1b,{8}8/2,{16}3,5,4-7[8:1],5,{8}3,4/2,1-5-3[4:1],
6-8[8:1],1,{4}6,{8}2-5[8:1],1,8/2,7,
6,4,3/7,{16}6-1[8:1],4,5,4,{8}6,5V37[4:1],5,
8,6,{4}4h[4:1],{16}8,5,1,6,2-5[8:1],7,3,8,
{8}2,1,8/4,{16}7,5,6,5,{8}7<4[8:1],8/4,{24}7/3,2x,1x-5-7b[24:7],
{4}8x-4-2[4:1],{8},,,,1/8,7,
2/6,6/2,{16}3,5,4,5,{8}3,3/7,{16}6,4,5,4,
{8}6,7/1,{16}2,6,3,5,{8}4,8/2,{16}7,3,6,4q7[16:9],
{1}5bp2[2:1],
{24}1b/8b,7/2,6/3,4/5,{48},,,,,,,,,,,,,,,,{16}4,5,4,5,4,5,4,5,
{1}6qq2[2:1]/3pp7[2:1],
{24}8b/1b,2/7,3/6,5/4,{48},,,,,,,,,,,,,,,,{16}5,4,5,4,5,4,5,4,
{1}6qq5<7[2:1]/3pp4>2[2:1],
{24}1b/8b,7/2,6/3,4/5,{48},,,,,,,,,,,,,,,,{16}4,5,4,5,4,5,4,5,
{1}6p4>2[2:1]/3q5<7[2:1],
{24}1b/8b,7/2,6/3,4/5,{48},,,,,,,,,,,,,,,,{16}4,5,3,6,2v5[8:1],7,1,8,
{4}2b,{8}7/4,{16}6,5,,,{8}5,{4}4/7,
{8}6,5,7/4,6,{16},5,{8}6,{4}4/7-4[8:1],
3,{8}5/2,{16}3,4,,,{8}4,{4}2/5,
{8}3,4,5/2,3,{16},4,{8}3,{4}5/2,
{8}6,7/3,6,{16}4,5,{8}4,6,3/7,4,
5,2/6,3,{16}5,4,{8}5,3,6/2,5,
{16}3,4,3,4,2,5,2,5,1,6,1,6,8q1>4[4:3],7,8,7,
{1}8bq5<8b[2:1],
5bxh[1:7]/1bx>2v7>8v5<6v3<4v1b[4:27],
E
