&title=Omega Horizon
&artist=Dontwin & Ash
&first=0.08
&des=...有人听Omega Horizon吗
&wholebpm=205.000
&lv_6=13+
&des_6=...有人听Omega Horizon吗
&inote_6=(205)
{1},,
{1}7>6[8:26]/Cf,,
{4}1,,2,,3,,4-1[8:1],4,
{16}7h[8:2],,,,8,,,,
3h[8:2],,,,1,,,,
{16}6h[8:2],,,,5,,,,2h[8:2],,,,4,,,,
{16}7,,7,,2,,2,,6,,7,,3,,2,,
{16}5,,7,,4,,2,,1-5[8:1]/8-4[8:1],,,,
{16}1bx/8bx,,,,
{4}6,8x/A2/D3/A3,4,1x/A7/D7/A6,5,8x/A2/D3/A3,4,1x/A7/D7/A6,
{4}5,8x/A2/D3/A3,4,1x/A7/D7/A6,5,8x/A2/D3/A3,4,{8}1x/A7/D7/A6,1,
{4}4,1x/A2/D3/A3,5,8x/A7/D7/A6,4,1x/A2/D3/A3,5,8x/A7/D7/A6,
{4}4,1x/A2/D3/A3,5,8x/A7/D7/A6,2<6[4:1],{8}5,,4-7[8:1]*-8[8:1],,,,
{8}2-6[8:1],,4,,5-8[8:1],,3x,3x,
2-6[8:1],,4,,5,,46,,
{8}7-3[8:1],,5,,4-1[8:1],,6,,
7-3[8:1],,5,,4qq4[8:2],,6,,
{8}7-3[8:1],,5,,4-1[8:1],,6x,6x,
7-3[8:1],,5,,4,,3/5,,
2,5,5,5,1qq2[8:3],,7,,
5,,4,4,5-8[8:1],,3b/5,,
5-8[8:1],,6b,,
5-8[8:1],,2b,,5-8[8:1],,6b,,
5-8[8:1],,3b,3b,
4-1[8:1],,6b,,4-1[8:1],,2b,,
4-1[8:1],,6b,,5-8[8:1],,3b,3b,
1-5[8:1],,8b,,1-5[8:1],,3b,,
1-5[8:1],,8b,,1-5[8:1],,3b,,
1-5[8:1],,4b,,7-3[8:1],,8b,,
7-3[8:1],,5b,,7-3[8:1],,4b,,
5-8[8:1],,6b,,4-1[8:1],,3b,,
5-8[8:1],,6b,,5-8[8:1],5,3b,3b,
4-1[8:1],,1b,,5-8[8:1],,8b,,
4-1[8:1],,1b,,5-8[8:1],5,3b,3b,
1-5[8:1],,8b,,1-5[8:1],,3b,,
1-5[8:1],,8b,,1-5[8:1],1,3b,,
2bx,2bx,6bx,6bx,{16}1b,8b,,8b,3b,,3b,,5b,4b,5b,4b,6b,,6bxh[4:1],,{24}8x-4[16:2],1x,2x,3x,4x,5x,{16},,,,
||
4/4
{16}1b<1[4:13]/Cf,,,,
{16},,,,
,,,,
,,,,
{16},,,,
,,,,
,,,,
,,,,
{16},,,,
,,,,
,,,,
,,,,
{16}E5h[4:2],,,,
,,,,
,,,,
1x<1[4:13],,,,
{16}Cf,,,,
,,,,
,,,,
,,,,
{16},,,,
,,,,
,,,,
,,,,
{16},,,,
,,,,
,,,,
B5,,B4,,
{16},,,,
,,,,
,,,,
1x<1[4:13],,,,
{16}Cf,,,,
,,,,
,,,,
,,,,
{16},,,,
,,,,
,,,,
,,,,
{16}8<5[4:4],,,,
,,,,
,,,,
,,,,
{16},,,,
,,,,
,,,,
1x-7-5-3-1[4:9],,,,
{16}Cf,,,,
,,,,
,,,,
,,,,
{16},,,,
,,,,
,,,,
,,,,
{16}7-5-3[8:9],,,,
,,,,
,,,,
B1,,B8,,
{16},,,,
,,,,
1xs5b[8:2],,,,
,,,,
{16},,,,
,,,,
,,,,
,,,,
{16}5h[8:2],,,,
4h[8:2],,,,
{32}
E6,E7,E8,E1,
E2,E3,E4,E5,
,,,,
,,,,
{16}E1h[16:1]/B8h[16:1]/B1h[16:1],,,,
5,,,,
3,,4,,
1x,,1x,,
{16}6,,6,,
5,,7,,
5-7[8:1]*-3[8:1],,,,
,,,,
{16}2,,8,,
2,,4,,
3,,2,,
7,,7,,
{16}5,,6,,
5,,7,,
2-4[8:1],,4-6[8:1],,
,,,,
{16}8,,8,,
5,,,,
6,,5,,
8x,,8x,,
{16}3,,3,,
4,,2,,
4-1[8:1]*-7[8:1],,,,
,,,,
{16}8,,1,,
8,,5,,
6,,7,,
2bx,,2bx,,
{16}6,,3,,
4,,2,,
1-6[8:1],,1-4[8:1],,
,,,,
{16}B5h[16:1]/E5h[16:1]/E6h[16:1],,,,
2,,,,
3,,4,,
1x,,1x,,
{16}6,,6,,
5,,7,,
5-7[8:1]*-1[8:1],,,,
,,,,
{16}2,,8,,
E4,,7,,
1,,E6,,
2,,2,,
{16}6,,4,,
E8,,3,,
5,,E2,,
E4/E5/E6,,,,
{16}7,,7,,
2,,,,
6,,5,,
8x,,8x,,
{16}3,,3,,
4,,2,,
4-2[8:1]*-8[8:1],,,,
,,,,
{16}1,,7,,
E4,,8,,
2,,E6,,
3,,3,,
{16}6,,4,,
E8,,3,,
5,,E2,,
8xw4b[8:1],,,,
{16}8b,,,,
1-4[8:1]*-3[8:1],,,,
1<6[8:1],,,,
1,,,,
{24}3x,2x,1x,8x,7x,6x,
{16}5xs1[8:3],,,,
7-3[8:1],,,,
,,,,
{16}2,,2,,
3<6[8:1],,,,
6,,7-3[8:1],,
,,7x,,
{32}E2,A1,E1,A8,E8,A7,E7,A6,
E6,A5,E5,A4,E4,,,,
{16}2x/6xh[4:1],,,,
3bx,4bx,3bx,4bx,
{16}1,,5,,
2-6[8:1],,,,
7,,8<5[8:1],,
,,3,,
{24}1h[8:1],,,E6,B6,B7,
E8,,,E2,B2,B3,
{16}E4`1x-5[8:1]*-6[8:1],,,,
1,,,,
{16}3h[8:2],,4,,
4,,7h[8:2],,
5,,5,,
4,,3,,
{16}3V16b[4:1],,,,
6V48b[4:1],,,,
8bxw4[8:1],,,,
,,,,
{16}6b,,2,,
8-5[8:1]*-6[8:1],,,,
8>3[8:1],,,,
8,,,,
{24}6x,7x,8x,1x,2x,3x,
{16}4x-8[8:1],,,,
2-5[8:1]*-6[8:1],,,,
2b,,,,
{16}7,,7,,
6>3[8:1],,,,
3,,2<7[8:1],,
,,2x,,
{16}6xh[16:3],,,,
4xh[16:3]/5xh[16:3],,,,
2xh[16:3]/3xh[16:3],,,,1bx,8bx,1bx,8bx,
{16}2,,6,,
7-3[8:1],,,,
2,,1>4[8:1],,
,,6,,
{24}7h[8:1],,,E4,B3,B2,
E2,,,E7,B6,B5,
{16}E5`8x-4[8:1]*-3[8:1],,,,
8,,,,
{16}6h[8:2],,5,,
3,,7h[8:2],,
5,,3,,
8h[8:2],,5<3b[8:4],,
{16}3>5b[8:3],,,,
,,,,
,,,,
,,,,
(205)
{16}1b-5[8:1],,,,
1,,7-4[8:1],,
8,,7,,
3,,,,
{16}2-6[8:1],,1,,
2,,7-4[8:1],,
8,,7,,
1,,,,
{16}5q3[8:3],,5,,
,,3>5[8:5],,
,,1,,
,,4h[8:5],,
{16},,,,
,,,,
2,1,8,7,
6b/3b,,,,
{16}5h[4:1],,,,
6,,8<5[8:1],,
,,1,,
3>8[8:1],,,,
{16}6h[4:1],,,,
7,,5>2[8:1],,
,,7,,
8h[4:1],,,,
{16}1x,2x,3x,,
8x,7x,6x,,
2x,3x,4x,,
7x,6x,5x,,
{16}2,,2,,
5,,5,,
8-4[8:1]*-6[8:1],,,,
8b,,,,
{16}2-6[8:1],,1,,
2,,7-4[8:1],,
8,,7,,
3,,3,,
{16}2-5[8:1],,1,,
2,,6-2[8:1],,
8,,6,,
1,,1,,
{16}8b-5[8:1],,,,
81,,2x-7[8:1],,
,,23,,
4x-1[8:1],,,,
{16}45,,6x<3[16:4],,
,,2,,
2bh[4:1],,,,
4x,5x,6x,7x,
{16}8-3[8:1]/2-5[8:1],,,,
8x/2x,,,,
6x,7,8,1,
2/6,,,,
{16}1<6[8:1]/7-4[8:1],,8,,
1x/7x,,,,
3x,2,1,8,
7/3,,5b>6[16:11]*<4[16:11],,
{16},,,,
,,,,
,,,,
,,,,
{16}5x,,5x,,
37,,37,,
1V35b[8:1]*V75b[8:1],,,,
1bx,,,,
||
outro
{16}4x<1[8:6],,,,
3,,,,
,,,,
3,,,,
{16}3x-5-1-7[8:6],,,,
6,,,,
,,,,
6,,,,
{16}4x<5-8[16:8],,,,
1,,,,
,,,,
4pp4b[16:3]*qq4b[16:3],,,,
{16}4x,,,,
,,,,
{12}2bh,6bh,4bh,1b-5b[8:1],7bh,3bh,1bh,
E
&lv_7=67
&des_7=[藏] KOM5
&inote_7=(205)
{1},,
{4}7>6[8:26]/Cf,,,,,,,,
{4}1,,2,,3,,4-1[8:1],4,
{16}7h[8:2],,,,8,,,,
3h[8:2],,,,1,,,,
{16}6h[8:2],,,,5,,,,2h[8:2],,,,4,,,,
{32}7,,,,,,,,7,6,5,4,,,,,6,,,,,,,,6,5,4,3,,,,,
{16}7,,7,,2,,2,,1-5[8:1]/8-4[8:1],,,,
{16}1bx/8bx,,,,
{8}6,,8x/A2/D3/A3,,4,4,1x/A7/D7/A6,,5,,8x/A2/D3/A3,,4,4,1x/A7/D7/A6,,
{8}5,,8x/A2/D3/A3,,4,4,1x/A7/D7/A6,,5,,8x/A2/D3/A3,,{16}8z4[16:3],7,6,5,,,,,
{8}5,,1x/A2/D3/A3,,5,5,8x/A7/D7/A6,,4,,1x/A2/D3/A3,,5,5,8x/A7/D7/A6,,
{8}4,,1x/A2/D3/A3,,5,5,8x/A7/D7/A6,,2<6[4:1],,{16}5,,,,4-7[8:1]*-8[8:1],,,,,,,,
{8}2-6[8:1],,4,,5-8[8:1],,3x,3x,
2-6[8:1],,4,,5w1[8:1],,5,,
{8}7-3[8:1],,5,,4-1[8:1],,6,,
7-3[8:1],,5,,4-1[8:1],,6,,
{8}7-3[8:1],,5,,4-1[8:1],,6x,6x,
7-3[8:1],,5,,4w8[8:1],,4,,
2,5h[384:1],5h[384:1],5h[384:1],1v6[8:1],,7,,
8h[8:1],,3,6,1-5[8:1]/8-4[8:1],,1b/8b,,
2b-5[8:1],,1b/2b,,
8b-4[8:1],,1b/8b,,3b-8[8:1],,3b/5b,,
1b/7b,1b/7b,8b/2b,8b/2b,
4b-1[8:1]/5b,,5b/4b,,5b-8[8:1]/4b,,5b/4b,,
3b<6[8:1],3b,6b,,8b-4[8:1],8b,1b,1b,
1b-6[8:1],,1b/6b,,2b-5[8:1],,2b/5b,,
8b-3[8:1],,8b/3b,,7b-4[8:1],7b,7b/4b,,
2-6[8:1],,5b,,7-3[8:1],,4b,,
1-4[8:1],,1b-6[8:1],,1-5[8:1],,,,
6,5,E7,E8,3,4,E3,E2,
6,5,E7,E8,2,1,38,,
3,4,E3,E2,6,5,E7,E8,
3,4,E3,E2,7>1[8:1]*-4[8:1],,7,,
3,4,E3,E2,6,5,E7,E8,
3,4,E3,E2,7,8,61,,
2b,2b,6b,6b,{16}1b,8b,,8b,1b,,1b,,7b,3b,7b,3b,6b,,6bxh[4:1],,{24}8x-4[16:2],1x,2x,3x,4x,5x,{16},,,,
||
4/4
{16}1b-6-2-5[4:5]/Cf,,,,
{16},,,,
,,,,
,,,,
{16},,,,
B8,,B1,,
,,,,
6-8[8:1]*-4[8:1],,,,
{16},,,,
3,,3,,
6,5,7,4,
6,5,7,4,
{16}6-4-7-5-1[4:3],,,,
,,,,
,,,,
2qq5[4:5],,,,
{16}Cf,,,,
,,,,
,,,,
,,,,
{16},,,,
6-8[8:1],,6-4[8:1],,,,,,
,,1,,
{16}1,,,,
3,,4,,
2,,5,,
1xqq4[8:5],,7xpp4[8:4],,
{16},,,,
,,,,
,,,,
1x<1[4:13],,,,
{8}B6f,B5,B4,B3,
B6,B5,B4,B3,
B6,B5,B4,B3,
B6,B5,B4,B3,
{16}8<5[4:4],,,,
A3,,A7,,
D3,,D7,,
A2,,A6,,
{16},,,,
,,,,
,,,,
1x-7-5-3-1[4:9],,,,
{8}B6f,B5,B4,B3,
B6,B5,B4,B3,
B6,B5,B4,B3,
B6,B5,B4,B3,
{16}7V15-3[8:4],,,,
,,,,
,,,,
2bx,,7bx>4[8:3],,
{16},,5,,
,,7,,
,,1xs5b[8:2],,
,,1x,,
,,,,,,,,,,,,
{24}B1,C,B5,,,,
{4}7<4[8:1],3v5[8:1],
{16}6,7,8,1,2,3,4,5,
{8}1b-5[8:1],1,5,,7v5[8:1]*v1[8:1],,7,,3,3,4-8[8:1],,4-1[8:1]*-7[8:1],,,,
2-5[8:1],1,2,8<5[8:1],,{16}84,3,2,1,8,7,{8}6-2[8:1],,6,7-3[8:1],,7,
5pp4[8:3],,4b,3,2-5[8:1],,6,7,8>4[4:1],,4<8[4:1],,1,2,3h[4:1],,8,8,
2>4[8:1],1,2,8<6[8:1],1,8,2b,2b,
{16}8x,7x,6x,5x,4x,3x,2x,1x,
{8}8x<5[8:1]*>3[8:1],,8w4[8:1],,8b,,
{4}2/6-1[8:1],
{8}2v4[8:1]*v8[8:1],,2,,6,6,5-1[8:1],,5-8[8:1]*-2[8:1],,,,
7-4[8:1],8,7,1>4[8:1],,{16}15,6,7,8,1,2,{8}3-7[8:1],,3,2-6[8:1],,2,
4qq5[8:3],,5b,6,7-4[8:1],,3,2,1<5[4:1],,5>1[4:1],,8,7,6h[4:1],,1,1,
7<5[8:1],8,7,1>3[8:1],8,1,7,7,
{16}4,,4,,
{8}7x-4[8:1],,1-4[8:1]*-7[8:1],,1,,
{8}2v5[8:1],5,2,,8-4[8:1]*<5[8:1],,8,,
{24}3x,2x,1x,8x,7x,6x,
{8}5xs1[8:3],,7-3[8:1],,,,
{8}2,1,3<6[8:1]/8,,3,7-3[8:1],,7,
{24}2bx,1,8,7,6,5,2bx,1,8,7,6,5,
{4}2x/4xh[4:1],{16}3,3,3,3,
{8}4,2,2-5[8:1],,27,8-4[8:1],,28,1,
{24}2x,3x,4x,5x/8x,,,B8,C,B4,
{4}A4/1x>4[8:1]*<6[8:1],1,
{8}5x-8[8:1],5x,4-1[8:1],4,7,6,5,4,
3V16b[4:1],,6V48b[4:1],,8bxw4[8:1],,,,
{8}7v4[8:1],4,7,,1-5[8:1]*>4[8:1],,1,,
{24}6x,7x,8x,1x,2x,3x,
{8}4x-8[8:1],,2-6[8:1],,2b,,
{8}7,8,6>3[8:1]/1,,6,2-6[8:1],,2,
{24}7h[24:6],,,,5,,4h[24:6],,,,3,,
{4}2h[24:6],{16}1,1,1,1,
{8}1,8,2-4[8:1],,82,1-5[8:1],,71,8,
{24}7x,6x,5x,4x/1x,,,B1,C,B5,
{4}A5/8x<5[8:1]*>3[8:1],8,
{8}4x-1[8:1],4x,5-8[8:1],5,2,3,4,5,
6<4[4:1]/7,,67,,8h[4:1],,
{4},
{16}
1h[4:1]/6b,,,,2,,2<6[4:1],,,,2,,5h[4:1],,,,3h[4:1],,,,2,,2<5[4:1],,,,2,,4h[4:1],,,,3,,2,,15,,1-3[8:1]/5-3[8:1],,,,1<2[8:4]/5,,,,1/6h[8:5],,,,,,,,,,{32}1,8,7,6,5,4,3,2,1h[4:1],,,,,,,,
{16}
5h[4:1],,,,6,,8<5[8:1],,,,3,,1-5[8:1],,,,1/8-4[8:1],,,,3,,1>4[8:1],,,,6,,8h[4:1],,,,2x-5[8:1],3x,4x,,8x-4[8:1],7x,6x,,1x-5[8:1],,3x-7[8:1],,1x,,3x,,4,,4,,6,,6,,8b-4[8:1]*-6[8:1],,,,8bx,,,,
{8}
2h[4:1]/5,,3,3<6[8:1],,37,8h[4:1],,1-6[8:1],2-5[8:1],1,2,{8},67,67,,
8xb-4[8:1],,81,2xb-6[8:1],,23,4xb-8[8:1],,45,6xb<4[16:4],,3,3h[4:1],,6,,
{16}
8-3[8:1]/2-5[8:1],,,,82,,,,8,7,6,5,4/1-6[8:1]*-5[8:1],,,,1,,,,38,,3-5[8:1]/8-4[8:1],,,,3/8<5b[8:1]*>3b[8:1],,,,
{32}8s4[4:3]*z4[4:3],A1f/A7f,A2f/A6f,A3f/A5f,,,,,,,,,
{4},,,
{8}26,26,37,37,
{32}8b/4,1,2,3,4b,5,6,7,{4}8b/1b,
{8}3,4,2,4,1,4,8,4,3,4,2,4,1,4,8,4,
7qq8[16:6],,,8V25b[16:6],,,,,E1,,,,
{12}6b/7b,6bx/7bx,6b/7b,6bxv6[8:1]`7bxv7b[8:1],6b/7b,6bx/7bx,6b/7b,
