&title=Distorted Fate
&artist=削除
&first=0
&des=和风moke
&lv_5=14+
&des_5=和风moke
&inote_5=
(150){4},{16},,,,,,,,7,8,{8}2xh[32:43]/1>1>1[16:21],
{1},{4},{32}3,
4,5,6b,,,,,,,,E7,,,,,{4}E3,
{1}Ch[1:1],
{4}1>4[4:3],5<8[2:1],{8},,,,,,4,
{32}7,3,,,{8}4,2,3,3,
4/5,{32}3,2,,,{8}2,3,{4}3,{8}B7/E7/B6,B1/E2/B2,
8,7/2,6,7,{16}7,1,{8}8,1,B2/B3/E3,
,B5/B4/E5,{16},,7,6,{32}4h[4:1]/5-8-6[4:1],,,,,,,,,,,4,,,,,{16}2,
3,{8}4h[4:1]/5-1-4[8:3],{32},,,,,,,,,,,3,,,{16}8,1,2,{8}3h[8:3],
,,1qq7[32:11],3,1,{16}4,3,{4}2,
3h[4:1],{8}7,2,6,6,{32}3,5,,,{8}3,
5,4,5,{16}4,4,{8}C,2,4,2,
4,{32}5,4,,,{8}7,{16}5,E6,{8}7,5,{32}2,3,{96},,{12}4,{96}6,,,,,6,,,,,,,,,(180){16}B5/B4/E5,
,7bv2[8:1],,,,7b/3bv8[8:1],,,,3b/6bv1[8:1],,,,6b/2bv5[8:1],
,,,2b/7bv2[8:1],,,,7b/3bv8[8:1],,,,3b/6bv1[8:1],,,,6b/2bv5[8:1],
,,,2b,,,,,5,4,6,3,5,4,5,4,
6,3,7,2,8,1,,,{2}1b,
{16}Ch[2:1],2v8[96:31]*v4[96:31],{4},,,{24},8,1,
8,1,8,1,{48},,,,,,,(150){16},{48},,,,,,,,,,,,,,,,,,{12}4/5,4,4,
{4}4bx/2>6[8:1],{12}2b/8,8,8,4/8,4,4,4x/5,5,5x/3<7[8:1],
,,1/3b,1,1,1/4,4,4,4/6,6,6,6/4<8[8:1],
,,,,,,,,,4/5,4,4,
{4}4/2>6[8:1],{12}2b/8,8,8,4/8,4,4,4/5x,5,5/3<7[8:1],
,,1x/3b,1,1,1/4,4,4,4/6x,6,6,6/4<8[8:1],
,,,,,,,,,3,3,3,
{24}4,3,{12}4,4,{24}2,3,{12}2,2-6-4[3:1],,,,,,,,,,6,
6,6,{24}5,6,{12}5,5,{24}7,6,{12}7,7-3-5[3:1],
{4},,,{16}5,6,5,7,
5,6,5,7,5,6,5,7,5,6,{8}4bh[16:5],{24},,,,,,,,,,,,{12}5,
5,{24}3,E3,{12}6,6,{24}3,E3,{12}7,7,{24}3,E3,
{12}8,8,3,3,4,4,{6}4b/3bh[16:1],{12},,6,2,
7,3,6,2b/4b,{24}6,3,{12}2,{16}4,6,2,7,8,4,7,3,
6,2,{24}7,{48}3b,8,,,{12}1,(180){24},2,,,{12}7,3,7,3,7,3,
{16}6,5,4,2,1,8,6,5,4,2,1,8,{48},,,,,,,,{12}3,
{16}8,1,8,1,8,1,7,6,5,1,2,3,6,5,4,2,
1,8,{8}7,{16},5,4,5,4,5,{8}4,{16}3,2,8,1,
8,,,4h[16:1],{48},,{24}4h[16:1],,,{12}4h[16:1]/3h[16:1],{48},,,,,,,,,,,,{16}1,1,{24}1,(150){48},1,,,{16}1,
,,2,3,4/8,7,6/2,3,4/8,7,6,,2,3,4,
5,6,7,8,{12}3b,C/B2/B3,{24},,,1x,2x,1x,2x,1x,2x,1x,2x,1,2,1,
2,3,4,5,6,7,{12}3b,{24}A7,E8,A1,D2,C,B5,A3,A4,{48},,,,,,,{16}1,2,3h[16:3]/4-2-4[4:1],
,,,,,,,,7,6,5,4h[4:1]/2p5[16:3],,,,,,,,,5,
4,5,4,6,3,6,2,{24}6,2,6,2,5,1,
5,1,4,8,4,8,{4}7-2-8[24:5]/3-6-4[24:5],{24},,,,,,,7b/3b,{48},,,,,{16}8b/4b,
{24}6b/2b,,,,,6h[4:1],,,,,,,,,,,,5h,,,4h,,,3h,
,,4h,3b<6[8:1],,,,,,,,,,,{12}3h[4:1],,,,,,4h,
{24},5h,,,6h,,,5h,,,{12}4h/6b>3[8:1],{24},3bh,,,,,,,,,,{8}5,
5,5,4,4,2/1-5[4:1],2,
2,2,2,2/4-8[4:1],2,2,2,2,
{16},8h[8:3],,,,,,,,,{8}B2/B3,E6/B5,E5/B4,
E8/B7,B6f/E6f,(210){4}B3/B4,{16}8,7,{8}2/6h[8:3],1-7-4[4:1],8,
,,{4}6-2[8:1],{8}3h,4h,5h,1-5[8:1],
{16},,,,,,,,2,3,{8}8/4h[8:3],{4}7-2-5[4:1],
7,3-6[4:1],3/7-2[8:1],{8}7,1-4[8:1],
{16},,,,,,,,8b-4[8:1],,,1,8,2-6[8:1],,,1,
2,{8}1-5[8:1],{16},2,{8}1,{24},,,,,,{12}4-8[8:1],,5,
{4}5-1[8:1],{16}1,2,{8}3,8v7[16:3],{16}2,1,{8}8,4-1[8:1],
{16},,1,2,{8}3-6[8:1],6-1[8:1],{16},,,,,,,B3h[16:9],
,,,,,,,,,,,(150),{12}6,5,4,
3,4,5,6,5,4,3,4,5,6,5,4,
{16}3,4,5,6,5,4,3,4,{12}5,{48}6,,,5,,,{24}4,{48},3,,,4,,,5,,,{24}6,
{48},5,,,4,,,3,,,{24}4,{48},5,,,6,,,5,,,{24}4,{48},3,,,,,,,,,,,{4}Cfh[4:3],
{16}8,7,6,5,,,,5,6,7,{8}8x,,,,,,,,,,Ch[4:1],
{16},,,,,,,,,,,,,Ch[16:5],,,,,,,,,,Ch[16:9],
{4},,,{24},1b/8b,
2/7,3/6,{12}4x/5x,,,,{4}8<2[4:1],
{16}8h[2:1],,,,,,,2,1,2,4,2,3,2,{8}5,
{4}6q3[4:1]/2q7[4:1],{16},,,,,,,,1,2,3/1,4,
5,6-3[8:1],,,,6bx/E6f/B5f/D6f/A5f/E5f,,,,,,,7,8,{24}6,,5,
{16}7,8,7,8,{4}1-4[16:3],{24},,,,,,,,,1,2/8,3/7,
4/6,5b,{48},,,,,,,,{16}3,4,3,2,1,3,4,3,2,1b-4[16:3]/6b-3[16:3],,,,,,,,5/2-5[8:1],
,,{4}6,{24}3,4,3,4,2,5,
2,5,1,6,1,6,8,7,8,7,1,2,3,4,5,6,7,8,{32}7b,6xqq3b[0.6##0.55],5,4,3,2xqq7b[32:11],{16}1,
{4},,,{24},3/7,4/8,5/1,6/2,3/7,
4/8,5/1,6/2,7<3>1[8:3]/3>7<5[8:3],,,,,,,,,,,,,,,,,4,5,,1,
8,2x-7[8:1],{48},,{16}1,3h[16:1],{4},,{24}8/E5,7/E4,6/E3,5/E2,4/E1,E8,
E7,,,,,Ch[6:1],,,,,,,,,,,,,,E1,E5,E7,{12}E3,
{24}E4,E8,E6,E2,C,B4,{16}B5,{48},,,,,,1-4[16:9],3h[8:1],,,,,,,,,,{12}3x,3x,3,2x,
2,2,,,,5-8[2:1],,,4,4,3,3,
2,2,1,1,{6}1,8bh[4:1]/2bh[4:1],{24},,,7/3,6/4,5<1[24:11]*>1[24:11],{1},{4},{16},,{48},{16}1bx,
1b,1b,{4}1b,{8}2/7-5b[8:1],5-8b[8:1],
4,3-1b[8:1],1-4b[8:1],5,5,6-3b[8:1],3-8b[8:1],1,
4,3,8-4[8:1],1-5[8:1],8,1,{12}3,3,3,
{3}3-6-4[6:1],{12}7,7,7,2-5-2[4:1],1,4,{6}2-8-2[4:1],
{12},7,7,7,6v3[8:1],3,4-1[8:1],6,,{4}4,
{16}1-6[8:1],1,1-4[8:1],1,{8}1-5[8:1],1-3[8:1],1-6[8:1],1-4[8:1],1-5[8:1],1,
{6}1,{24}3,4,3,4,3,4,3,4b,,,7bh,5bh[8:1],,,,,,,,,{12}8b-4[8:5],
3,3,3,3,3,4,4,2,2,{6}3,
{4}1b-5[8:5],{12}5,5,5,5,6,6,7,{48},,,,,{16}6,
4,5,3,4,2,3,{8}1b,{2}4bh[16:7],
{16}3,3,3,2,1,3,,6,6,6,6,7,8,6,,6,
5,6,{24}5,{48}4,3,,,{16}3,4,4,2,2,5,{8}5,{16}7,7,5,5,
6,6,8,8,4b,,,6,7,2,1,6/2,,6,2,6,
1,6,2,6,{24}1,3,6,4,2,6,{16}6,6,2,7,4,5,{24}1,{48}2,7,,,{16}3,
5,{24}7b,3,6,2,5,1,4,8,5,1,6,3,7,4,(160)1b,{12}5x,{24}5bx,2x/6,3/7,4/8,
5/1,6b/2x,7,8,1,2x/6,3/7,4/8,5/1,6b/2x,7,8,1,2x/6b,7/3,4/8,5/1,6b-4-2b[24:31]/2b-8-6[24:31],{1},{4},,,{8}Ch[2:1],
B4,E3,B3fh[8:7],
,,,,,,,,,,Ch[1:1],
B5,{4}E7,8bx-4[0.5625##0.25],
{12},,B8,B4,
E
