&title=VΛjra
&artist=S9ryne、藍沢かおり
&first=0
&lv_5=14
&des_5=简心单视
&inote_5=
(165){4},,,,,,,,{8}7x/5x,
{16}6,4,{8},5/3,,6/2,,8/4,
{16}7/3h[8:3],{8},{16}5,{8},1,8/2,8/2,{4}8h[8:1]/2h[8:1],
{8}7/5,{16}6,4,{8},5/3,,6/2,,8/4,
3/7h[8:3],3,2,2,7h[16:1]/1h[16:1],7h[16:1]/1h[16:1],{4}7/1,
{8}6b/5b,4,7,{16}7,8,{8}7,7,6/1,2/5,
3b/4b,5,2,{16}2,1,{8}2,2,3/8,7/4,
6b/5b,{16}8,1,8,1,{8}8,3b,{16}5,4,5,4,{8}5,
{16}7,8,{8}7,{16}2,1,{8}2,{16}8x,8x,{8}8x,E7/B6,B2/E3,
{4}5bh[8:1]/4bh[8:1],{16}3,4,3,5,{8}4,{16}6,5,6,4,5,4,
6,5,6,5,7,4,7,4,{8}8,{16}5,6,5,6,{8}8,
7<4[8:1],8,1-3[8:1],1-5[8:1],{4},{8}4,2,
5-8[8:1],1-4[8:1],5,1,7,7,6/5,8/1,
{4}5bh[8:1]/4bh[8:1],{16}6,5,6,4,{8}5,3,{16}3,5,4,5,
3,4,3,4,2,5,2,5,{8}1,{16}6,4,6,4,{8}8,
1-5[8:1],2,1/7<4[8:1],8,7/3-8[8:1],2,6/3,6,
{16}7,5,{8}7,{16}2,4,{8}2,{16}8,8,{8}8,{16}1,1,{8}1,
{2}7b<4[8:1]/3b>8[8:1],{8}6h[8:3],5,5,5,
3h[8:3],4,4,4,8h[4:1],1,1p5[8:1]*q5[8:1],8/2,
{4},{8}4x/6x,5,5,{16}5,4,{8}5,5,
3,{16}3,4,3,4,{8}3,5-8[8:1]/3-8[8:1],5/3,{4}5/3,
{2}2b>5[8:1]/6b<1[8:1],{8}3h[8:3],4,4,4,
7h[8:3],6,6,6,2h[4:1],1,1z5[8:1]*s5[8:1],8/2,
{4},6x/4x,{8}7/3h[8:3],7,7,7,
{16}7,7,5,5,3,3,1,1,7,6,5,4,3,2,1,8,
{4}7-5[8:1]/4-1[8:1],7qq1[8:3],7x,2-4[8:1],
2-8[8:1]/7-4[8:1],2/7V13-5[8:3],7x,4,
6-1[8:1]/2-4[8:1],2pp8[8:3],2x,7V53[4:1],
7,1q5[8:1]*V35[8:1],1bx,{16}7,7,7,7,
{4}8x-3[8:1]/6x-1[8:1],8V64[4:1],8x/4V28[4:1],1,
4-6[8:1],2-5-8[4:1],2x/8-3[8:1],7,
8-2[8:1],6-1-4[4:1],6x/4-7[8:1],3,
{8}8,{16}7,6,7-5q1[4:1],6,{8}7,7x/4x,3,{4}2,
6bh[8:1]/5bh[8:1],4bh[8:1]/3bh[8:1],5bh[8:1]/6bh[8:1],{8}6/4,6/4,
{16}3,5,3,5,2,5,2,5,1p4[8:1],5,1,5,{4},2bh[8:1]/6bh[8:1],
{8}5/3,5/3,5/3,{16}2,4,2,1,{8}2,
{16}7,8,7,1,7,2,7,3,7,4,{32}8,7,6,5,{16}3x,4,2,4,
{4}1bh[8:1]/5bh[8:1],{8}7/3,7/3,{16}8,5,{8}8,6/2,6/2,
{16}1,4,{8}1,{16}5,2,5,2,5p1[8:1]*-2[8:1],3,5,3,{4}5bx,
8bh[8:1]/4bh[8:1],7bh[8:1]/3bh[8:1],{8}6bh[16:1]/2bh[16:1],6bh[16:1]/2bh[16:1],5bh[16:1]/1bh[16:1],1bh[16:1]/5bh[16:1],
{16}4,2,5,3,6,4,7,5,{32}8,7,6,5,4,3,2,1,8,7,6,5,4,3,2,1,
{4}8h[16:3],{16}Cf/B7/B3,A7/A3,,1/5,{8},6/2,5/3,1,
{16}7,8,{8}7,{16}2,1,,8/4,{8},7/3,6/4,8,
{16}2,1,{8}2,{16}3,4,,5/2,{8},7/8,1/6,5,
{16}3,4,{8}3,{16}6,5,,7/4,{8},1/2,8/3,4,
{16}6,5,{8}7,{16}8,1,,2/7h[16:3],{8},5,6/4,3,
{16}2,1,{8}3,{16}8,1,,7/2h[16:3],{8},4,5/3,6,
{16}7,8,{8}6,{16}3,1,,8/4h[16:3],{8},6,7/5,4,
{16}3,4,{8}2,{16}1,8,,1h[16:7],{8},E6,E7/D7,E8,
{16}3,5,{8}3h[16:3],{16}6,6V84[16:5],,5/7,{8},4,3,2,
{16}5,3,{8}5h[16:3],{16}1,1p5v3[16:5],,4/2,{8},6,7,8,
{16}2,8,{8}2h[16:3],{16}7,7-5v4[16:5],,8/3,{8},1,2,3,
{16}5,6,{8}7h[16:3],{16}1,1pp5[16:5],,2/8<5[16:3],{2},{16}6,
4,{8}6,{16}3,5,,5,{8}6x/4x,E7/B7,C,E3/B3,
{16}7,1,{8}7,{16}2,8,,8,{8}7x/1x,B2/E3,C,B6/E7,
{16}3,4,{8}3,{16}2,5,,5h[16:3],{8},4,5s1[8:3],6-3v8[4:1],
,,,,,2h[4:1],7,7,
{16}A4,B4,{8}C,{16}A5,B5,{8}C,{16}E4,E3,{8}E2,{16}E6,E7,{8}E8,
8bx/1bx,{16}6bx,5bx,{8}7bx/4bx,{16}3bx,4bx,{8}5bx/2bx,{16}8bx/1bx,7bx/2bx,{4}6bx/3bx,
{32}6,5,4,3,{16}1,1,8,8,2,2,7-3[8:1],7,4,4,{4}7x,
{16}5,5,5,5,5,5,5,5,5-7b[8:1]*-3[8:1],5,5,5,{4}5bx,
{32}1x,2,3,4,5,6,7,8,1,2,3,4,5,6,7,8,{48}1,2,3,4,5,6,7,8,1,2,3,4,{32}8,7,6,5,{8}4x,
{32}8,7,6,5,{8},{4}3bxh[8:1]/7bxh[8:1],{8},5,6bx/4bx,{16}8/2,2/8,
,7/1,{8}7h[32:3]/1h[32:9],{32}6,5h[16:3],{8},{32}2,3h[32:5],{8},4,{4}5bx<3V17v4[1:2]/3bx>5V71v4[1:2],
{1},,,,{16}3h[16:3],
{8},{16}4,{8}3,{16}3,4,{8}3,3,4,4,
{16}6h[16:3],{8},{16}5,{8}6,{16}6,5,{8}6,6,5,5,
{16}1h[16:3],{8},{16}5,{8}1,{16}1,5,{8}1,1,6/2,6/2,
{16}E6,E5,E3,E2,E7,E6,E4,E3,E8,E7,E5,E4,1b,1b,1b,1b,
{4}8x/2x,{16}7,5,,4h[16:7]/8-3[16:1],{8},8bx-5[16:1],,8bx,
1bx,1,2/4,{16}3,4,{8}2<5[8:1],3/4,{4}2h[8:1],
1x/7x,{16}2,4,,5h[16:7]/1<6[16:1],{8},1bx>4[16:1],,1bx,
8bx,8,7/5,{16}6,5,{8}7p2[8:1],6/5,{4}7h[8:1],
{8}8bx/1bx,7,2,{16}5,4,{8}6,6,{16}4,5,3,6,
{8}5bx/4bx,3,6,{16}1,8,{8}2,2,{16}8,1,7,8,
6b,6,4,4,5,5,3,3,6b,6,5,5,4,4,3,3,
8,5,{8}8,{16}1,4,{8}1,{16}8x,8x,{8}8x,B1/E2,B5/E6,
3,3,7x/4x,7x/4x,7x/5x,7x/5x,7x/6x,7x/6x,
8x/7x,8x/7x,7x/1x,7x/1x,7x/2x,2x/7x,{16}E3,B3,B4,E5,
{8}6,6,{16}7x,4,7x,4,{32}7x,6,{16}5,{8}2xh[8:1],{16}4,3,4,3h[32:1],
{8}2x/5x,2x/5x,6x/3x,6x/3x,5x-1[8:1]/4x-8[8:1],7x/2x,{4}5x/4x,
{8}7x,7,3x/8x,3x/8x,3x/1x,3x/1x,3x/2x,3x/2x,
4x/3x,4x/3x,3x/5x,3x/5x,6xv3[8:1]/2xv5[8:1],7x/1x,{4}6x/2x,
{8}7x/1x,5x/3x,4x/6x,8x/2x,{16}4,5,3,6,2,7,1,8,
A2,E3,E4,A4,A8,E8,E7,A6,A1,E2,E3,A3,A7,E7,E6,A5,
{4}4bx-8[8:1],4b/1bx-3[8:1],1b/7bx-5[8:1],7b/4bx-2[8:1],
4b/1bx-5[8:1],1b/8bx-6[8:1],8b/4bx,{8}1bx/5b,{16}1/5,2/6,
{8}7bx/3bx,8bx/5bx,2bx/4bx,1bx/6bx,8bx/3bx,5bx/4bx,6bx/2bx,8bx/7bx,
1bx/5bx,2bx/3bx,7bx/4bx,8bx/6bx,5bx/3bx,1bx/2bx,{16}8bx/1bx,8bx/1bx,8bx/1bx,8x-5-2[0.4545##0.3636]/1x-4-7[0.4545##0.3636],
{4},Cf/B8/B1/B7/B2,
E
