&title=Second Choice
&artist=M2U
&first=0.05
&des=一维世界
&lv_5=13+
&des_5=一维世界
&inote_5=(150)
{4}
,,,,
{8}
2-5[12:1],5,2,7,7-4[12:1],3,1,,
{8}
2-5[12:1],5,2,7,7-4[12:1],3,1,,
{8}
2-5[12:1],5,2,7,7-4[12:1],3,1,,
{8}
2-5[12:1],5,2,7,7-4[12:1],3,1,,
{8}
3-6[12:1],,36,,7-4[12:1],3,71,,
{8}
3-6[12:1],,36,,7-4[12:1],3,71,,
{8}
3-6[12:1],,36,,7-4[12:1],3,71,,
{8}
26,1,26,5,26,1,{16}
8-4[12:1],4,8,4,
{8}
8b,,,,
{16}
2-6[12:1],6,2,,,,,,
{16}
7-4[12:1],,4,,7,,2-6[12:1],,6-3[12:1],,2,,8,,,,
{16}
7-4[12:1],,4,,7,,2-5[12:1],,5-1[12:1],,2,,8,,,,
{16}
7-4[12:1],,4,,7,,2-7[12:1],,7-3[12:1],,2,,5,,,,
{16}
7-4[12:1],,4,,7,,2-6[12:1],,6-1[12:1],,2,,8,,,,
{16}
7-4[12:1],,4,,7,,2-6[12:1],,6-3[12:1],,2,,8,,,,
{16}
7-4[12:1],,4,,7,,2-5[12:1],,5-1[12:1],,2,,8,,,,
{16}
7-4[12:1],,4,,7,,2-6[12:1],,6-1[12:1],,2,,8,,,,
{16}
73,,4,,73,,8,,3,7,3,7,3,7,3,7,
{16}
2-5[12:1],,4,5,6,7,8-4[12:1],,4-7[12:1],,8,,3,2,1,,
{16}
2-5[12:1],,5,6,7,8,1-5[12:1],,5-8[12:1],,1,,4,3,2,,
{16}
2-5[12:1],,4,5,6,7,8-4[12:1],,4-7[12:1],,8,,3,2,1,,
{16}
2-5[12:1],,5,6,7,8,1-5[12:1],,5-8[12:1],,1,,4,3,2,,
{16}
2b,5,3,6,4,7,2-5[12:1],,5-1[12:1],,2,,6,7,8,,
{16}
2,6,4,5,3,7,1-4[12:1],,4-8[12:1],,1,,7,6,5,,
{16}
2,5,3,6,4,7,2-5[12:1],,5-1[12:1],,2,,6,7,8,,
{16}
3-7[12:1],,,,3,,6,5,4,3,2,1,84,73,62,51,
{8}
8b/4b,,,,{16}8-4[12:1],4,8,,,,,,
{8}
1,,7/2-5[12:1],8,6-1[12:1],,6,,
{8}
7/2-5[12:1],1,2/8-4[12:1],6,84,,1,{16}6,2,
{8}
8,,2/7-4[12:1],1,3-8[12:1],,3,,
{8}
2/7-4[12:1],8,7/1-5[12:1],3,15,,62,{16}73,84,
{8}
1-6[4:1]`5-2[4:1],,,,,,18,,
{8}
2/7-4[12:1],8,7/1-5[12:1],3,15,,8,{16}3,7,
{8}
1,,7/2-5[12:1],8,6-1[12:1],,6,,
{8}
7/2-5[12:1],1,2/8-4[12:1],6,84,,37,{16}26,15,
{8}
8-3[12:1]/4,,8/7-4[12:1],,2-5[12:1]/7,,2/1-6[12:1],,
{8}
2-5[12:1]/1,,2/7-4[12:1],,8-3[12:1]/7,,8/7,,
{8}
5-2[12:1]/6,,5/6-1[12:1],,3-8[12:1]/6,,3/4-7[12:1],,
{8}
3-8[12:1]/4,,3/6-1[12:1],,5-2[12:1]/6,,5/6,,
{16}
71,,3,,71,,3,3,82,,6,,82,,6,6,
{16}
57,,3,3,24,,81,81,27,,,86,,,13,,
{16}
27,,8,8,6,,1,1,3,,8,8,6,,1,1,
{16}
3,3,4,4,5,5,6,6,7,7,8,8,{32}1,2,3,4,5,6,7,8,
{16}
1b/5-1[12:1],,,,,,,,7-3[12:1],3,7,,,,,,
{16}
2,1,,4,5,,8,7,,2,4,2,5,2,6,2,
{16}
7,8,,5,4,,1,2,,7,3,7,4,7,5,7,
{16}
6,8,,1,3,,5,4,,7,1,8,3,6,5,7,
{16}
2,8,,3,4,,1,7,,2,4,2,5,2,6,2,
{16}
7b,8,,4,3,,1,2,,7,5,7,4,7,3,7,
{16}
2,1,,5,6,,8,7,,2,6,2,5,2,4,2,
{16}
3,1,,8,6,,5,4,,2,8,1,6,4,5,3,
{16}
7-4[12:1],,62,,74,,2,,8-4[12:1],,62,,84,,,,
{16}
2b,2,1,3,5,4,6,5,7,3,7,5,7,3,7,5,
{16}
8,8,1,7,5,6,4,5,3,7,3,5,3,7,3,5,
{16}
2,8,1,6,5,7,3,4,2,7,1,8,3,6,5,7,
{16}
2-5[12:1],1,3,1,2,,8,8,3-8[12:1]`7-4[12:1],,26,,37,,,,
{16}
7b,7,8,6,4,5,3,4,2,8,2,4,2,8,2,4,
{16}
1,1,8,2,4,3,5,4,6,8,6,4,6,8,6,4,
{16}
7,1,8,3,4,2,6,5,7,2,8,1,6,3,4,2,
{16}
8-4[12:1],,62,,84,,2,,17,,35,,84,73,62,51,
{16}
8b/4b,,,,,,,,8-4[12:1],4,8,,,,,,
{8}
2-5[12:1],5,2,7,7-4[12:1],4-7[12:1],2,,
{8}
2-5[12:1],5,2,7,7-4[12:1],4-7[12:1],2,,
{8}
2-5[12:1],5,2,7,7-4[12:1],4-7[12:1],2,,
{8}
2-5[12:1],5,2,7,7-4[12:1],4-7[12:1],2,,
{8}
3-6[12:1],,3,,7-4[12:1],4-7[12:1],7,,
{8}
3-6[12:1],,3,,7-4[12:1],4-7[12:1],7,,
{8}
3-6[12:1],,3,,7-4[12:1],4-7[12:1],7,,
{16}
1b,,,,,,,,4,5,4,,3,4,5,6b,
E
