&title=Unstoppable Vibes
&artist=DJ Noriken
&first=-0.837
&des=Pototato
&lv_5=14
&des_5=Pototato
&inote_5=
(175){4},,,,,,,,4/5,
{8}5/4,5,{4}5/4,{8}5/4,5,
5/4,3,5/4,6,{4}5/4,{8}4/5,5/4,
{4}6/4,{8}6/4,6,{4}6/4,{8}6/4,4,
4/6,7,6/4,3,{4}6/4,{8}6/4,5/3,
{4}4/3,{8}4/3,4,{4}3/4,{8}4/3,4,
4/3,2,3/4,5,{4}4/3,{8}3/5,6/4,
{4}5/6,{8}5/6,5,{4}5/6,{8}5/6,5,
5/6,6,5/6,4,6xh[16:1],6xh[16:1],2xh[16:1],2xh[16:1],
{16}7b/1b,,,3,{8}4,3/5,{16}6,5,{8}6,7/4,{16}4,6,
{8}3/6,{16}3,4,{8}3,{16}6,5,6,5,{8}6,6/4-7[8:1],3/5,
{16}2/4,,,3,{8}4,6/4,{16}3,4,{8}3,2/5,{16}5,3,
{8}6/3,{16}6,5,{8}6,{16}3,4,3,4,{8}3,3/5,2/4,
{16}2b,5,4,5,4,5,4,5,4,5,4,5,4,5,4,5,
2x,6,5,6,5,6,5,6,4,7,5,6,4,7,5,6,
4x,7,5,6,4,7,5,6,3,6,4,5,2>8[1:1],4,3,5,
{4}2bx/4bxh[2:1],{8},,,,1-5[8:1],1,
{4}1b,,,8,
{8}7,,,6,,,{4}4,
{8}3,2,{4}1h[2:3],{8},,,,7,
6,{4}5h[4:3],,,2,
,,2,
{8}1,,,4,,,{4}5,
{8}7,6,{4}5h[8:5],{8},,,2,
3/Ch[1:1],2,{4}1h[2:1],,,1b,
{8}2/7,3,6/4,4,{4}4/6h[8:1],
{8}5/3,{16}3,3,{8}4,4,5/3,5,4/2,3,
4b/5h[8:1],4,3/5h[8:1],3,2/5h[8:1],2,{4}1h[8:1]/5h[8:1],
{8}5/1,{16}6,6,{8}5,5/3,5-1[8:1]/2-4[8:1],4/1,{4}5/2,
{16}5bx,4,5,4,5,4,5,4,5,4,5,4,5,4,5,4,
6x,3,5,4,6,3,5,4,7,2,5,4,7,2,6,3,
{32}8x,7x,6x,5x,{8}4x,3/6,2/7,{32}1x,2x,3x,4x,{8}5x,3/7,6/4,
6xh[16:1]/4xh[16:1],6xh[16:1]/4xh[16:1],7xh[16:1]/3xh[16:1],6xh[16:1]/4xh[16:1],{4}7xh[8:1]/3xh[8:1],8b/2b,
5h[8:1]/6h[8:1],{8}6/4,4,6/5-1[8:1],6,{4}5/7h[8:1],
{8}7/8h[8:1],7,6/8h[8:1],6,7/1,8/2,1/3,4/2,
4/3h[8:1],4,5/3h[8:1],5,3/6v1[8:1],3,{4}6/2h[8:1],
{8}2/8,7,1/8,2,2bx/1bx,5bx/4bx,{4}8bx/7bx,
3h[8:1]/5h[8:1],{8}3/5,5,3/4-8[8:1],3,{4}4/3h[8:1],
{8}2/1h[8:1],2,3/1h[8:1],3,2/8,1/7,8/6,5/7,
{4}6bh[8:1]/5bh[8:1],7bh[8:1]/4bh[8:1],{8}6b/5b-1[8:1],6b,{4}5b/6bh[8:1],
{16}7,8,{8}7,7/8,6,7-3[8:1]/8-4[8:1],1,{4}8/7,
{16}2x/5x,3x,,3x,{8}5bx/2bx-4[8:1],6,7/2-8[8:1],7,{4}7h[8:1],
{8}2/4h[8:1],2,1/5h[8:1],1,6h[8:1]/8-3[8:1],8,{4}8/6h[8:1],
{8}8/2h[8:1],8,{4}3h[8:1]/8-6[8:1],4h[8:1]/8-2[8:1],8/5h[8:1],
{8}5/8h[8:1],6,5/7h[8:1],4,6b/4b,4b/6b,B4/E4,B7/E8,
{4}5xh[8:1]/3xh[8:1],5h[8:1]/2-4[8:1],{8}5/2-6[8:1],6,{4}2/7-1[8:1],
4h[8:1]/7-5[8:1],7/3h[8:1],{8}8/2h[8:1],7,6/1h[8:1],5,
{4}8bh[8:1]/4bh[8:1],1bh[8:1]/5bh[8:1],{8}6bv1[8:1]/2bv5[8:1],7b/3b,{4}2b/6b>8[1:1],
{8}8,7,6,5,7,6,5,4,
{1}3b,
,6h[1:1],
5h[1:1],
4h[1:1],
,3h[1:1],
4h[1:1],
5h[1:1],
6w2[2:1],
{4}6/5,6/5,{2}C/B8/B3,
{4}3/4,3/4,{2}C/B1/B6,
{4}6/4,6/4,{2}B7/C/B3,
{4}3/5,3/5,{2}C/B6/B2,
{4}4/6,4/6,{2}B7/B3/A3/A7,
{4}5/3,5/3,{2}B6/B2/A6/A2,
{4}5/6,6/5,{2}B7/B4/C,
{4}4/3,4/3,{2}C/B5/B2,
{1}5h[4:3]/4h[2:3],
{4}5>7[4:3],{8},,,,4-8[8:1],4,
{4}4b,5bxh[8:27]/3h[8:1],{8}3,2,1,8,
{4}7h[8:1],{8}8-2[8:1],8,{4}8b-6[8:1],8b>3[8:1],
8b,4,4h[8:1],{8}4,3,
2,1,{4}8<6[8:1],8-3[8:1],{8}5,6,
{4}7/4bxh[2:7],6h[8:1],{8}6,7,8,1,
{4}2h[8:1],{8}1-7[8:1],1,{4}1b-3[8:1],1b<6[8:1],
1b,5,5h[8:1],{8}5,6,
7,8,{4}1<6[8:1],1,{8}4,5,
{16}6/5,,,3,{8}4,3/5,{16}6,5,{8}6,7/4,{16}4,6,
{8}3/6,{16}3,4,{8}3,{16}2,1,2,1,{8}2,2/8-4[8:1],7/1,
{16}6b/8b,,,6,{8}5,6/4,{16}3,4,{8}3,2/5,{16}5,3,
{8}6/3,{16}6,5,{8}6,{16}7,8,7,8,{8}7,1/7,2/8,
{16}3b,4,3,4,3,4,3,4,3,4,3,4,3,4,3,4,
2x,5,3,4,2,5,3,4,1,6,2,5,8,7,1,6,
{32}1x,2x,3x,4x,{8}5x,6/4,7/3,{32}8x,7x,6x,5x,{8}4x,6/2,3/5,
3xh[16:1]/5xh[16:1],3xh[16:1]/5xh[16:1],2xh[16:1]/6xh[16:1],3xh[16:1]/5xh[16:1],{4}2xh[8:1]/6xh[8:1],7b/1b-6[8:1],
1b/4b-8[8:1],4/7h[8:1],{8}7/1,8/2,3/1,2/4,
{4}5/3-7[8:1],{8}3/6,5,{4}4-8[8:1]/8-3[8:1],4/8,
2/7v2[8:1],7/4,5h[8:1]/1h[8:1],{8}5/1,8/4,
7/3,6/2,{4}5/1q5[8:1],1/6h[8:1],{8}5/7,8/4,
{4}1b/3b-6[8:1],8h[8:1],{8}2/8,1/7,6/8,7/5,
{4}4/6-2[8:1],{8}6/3,4,{4}5-1[8:1]/1-6[8:1],5/1,
7/2v7[8:1],2/5,4h[8:1]/8h[8:1],{8}4/8,1/5,
{16}2,5,{8}2,{16}7,4,{8}7,5b/4b,6b/3b,{4}2b/7b,
{8}2x/1xv6[8:1],3x/8x,{4}1x/2xh[8:1],{8}7/3,8/4,1/5,2/6,
{4}1h[8:1]/5h[8:1],{8}5/1-4[8:1],6,{4}7x/1x-6[8:1],1x/3x-7[8:1],
3x/8x<5[8:1],8/3,8h[8:1]/4h[8:1],{8}8/4,7/3,
6/2,5/1,{4}8>3[8:1]/4-8[8:1],{8},,7/5,6/4,
3x/5x-7[8:1],2,1,8,4x/6x-8[8:1],3,2,1,
6x/4x-2[8:1],7,8,1,5x/3x-1[8:1],6,7,8,
{32}7/1x,2x,3x,4x,{8}5x,6/3,7/2,{32}8x/3,7x,6x,5x,{8}4x,2/6,5/3,
3xh[8:1],4xh[8:1],{4}5xh[8:1],{2}5xw1[8:1],
{4}4b/6b<1[8:1],6/3V57[4:1],{8}3/7V53q7[8:3],8,1,2,
{4}1h[8:1],{8}6/2,5/1,{4}4x/8x-4[8:1],2x/8x>6[4:1],
8x/7x,7-3[8:1],7/5bxh[4:1],{8}2,5/2,
4/1,3/8,{4}7/2v5[8:1],{2}2/7-4-8[4:1],
{4}3>8[8:1],3/6V42[4:1],{8}6/2V46p2[8:3],1,8,7,
{4}8h[8:1],{8}3x/7x,4x/8x,{4}5x/1x-5[8:1],7x/1x<3[4:1],
1x/2x,2-6[8:1],2/4bxh[4:1],{8}7,4/7,
5/8,6/1,{4}2-5[8:1]/7-4[8:1],7b/2b,{8}7v2[8:1],1/8,
{4}7/2,3b/8b-5-3[4:1],{8}8/3-6-8-4[8:3],2,1,8,
{4}2-7-4[4:1],{8}2/4-1[8:1],5,{4}6x-2[8:1],6x/4xv7[8:1],
4bx/6bxh[4:1],4,6/3h[2:1],{8}6,5,
4q8[8:1],3,{4}4/2-6[8:1],2x/4-6-1[4:1],{8}3,2,
{4}3,6b/1b-4-6[4:1],{8}1/6-3-1-5[8:3],7,8,1,
{4}7-2-5[4:1],{8}7/5-8[8:1],4,{4}3x-7[8:1],3x/5xv2[16:3],
5bx/3bxh[4:1],5,3/6h[2:1],{8}3,4,
5p1[8:1],6,{4}5/7,5/4-8[8:1],{8}4/7b-3[8:1],7b,
{4}7b,,,B2,
{8}E8,,,B5,,,{4}B4,
{8}B6,C,{4}B2,{8},,,,B6,
C,{4}E4,,E6,
B4,,,B2,
{8}A1,,,B8,,,{4}B6,
{8}E3,B4,{4}A5,{8},,,B1,
B7,E3,{4}E6,,B4,
4bxh[8:1]/3bxqq7[2:3],4h[8:1],5h[8:1],5h[8:1],
6h[8:1],6h[8:1],5h[8:1],{8}4,5,
{4}4bxh[8:1]/6bxpp2[2:3],4h[8:1],4h[8:1],4h[8:1],
3h[8:1],3h[8:1],4h[8:1],{8}5,4,
{4}3/6h[4:3],5,{2}2>5[8:1],
{4}6/3h[4:3],4,{2}7<4[8:1],
{8}2/5,3,4,5,3/6,4,5,6/4,
{4}6p1[8:3]/4z8[8:3],{8},,,,4/6,4/6,
5/4v1[8:1],6,{4}4/7h[8:1],{8}3/7>2[8:1],6/4,{4}7/3,
{8}4/8h[8:1],4,3/8h[8:1],3,2/8-6>5[8:1],2,8/1,1,
4/1h[8:1],4,5/1h[8:1],5,6/2h[8:1],6>3[8:1],{4}6/2h[8:1],
{8}2,2,3/1,3/1,8bx/4bx,5bx/3bx,{4}1bx-3<4[8:1]/7bx-5>4[8:1],
1/7,{8}1/5h[8:1],2,3/4-6<7[8:1],3,{4}3/4,
{8}8/3h[8:1],8,7/3h[8:1],7,6/3v8[8:1],6,5/3,5,
1/5h[8:1],1,2/5h[8:1],2,3/6h[8:1],3,{4}7h[8:1]/3h[8:1],
{16}7x,4x,{8}7x,{16}2x,5x,{8}2x,5h[16:1]/4h[16:1],6h[16:1]/3h[16:1],{4}2b/7b,
{8}7x/4x,6/5,{4}5bh[8:1]/7b-5[8:1],3h[8:1]/7-1[8:1],{8}3,4,
7/5h[8:1],7,8/4h[8:1],8,{4}3h[8:1]/1-6[8:1],1/3h[8:1],
{8}1/7h[8:1],1,{4}6h[8:1]/1-3[8:1],5h[8:1]/1-7[8:1],1/4h[8:1],
{8}4/1h[8:1],3,4/2h[8:1],5,6,5,4,3,
{4}4h[8:1]/6h[8:1],4/7-1[8:1],{8}4/7-5[8:1],3,7/2-5[8:1],1,
{4}2/6-1[8:1],{8}6/3-8[8:1],4,{2}7v2[8:1]/3v6[8:1],
{32}1/8x,7x,6x,5x,{8}4x,3/6,2/7,{32}1x/8,2x,3x,4x,{8}5x,7/3,4/6,
3xh[16:1]/5xh[16:1],3xh[16:1]/5xh[16:1],2xh[16:1]/6xh[16:1],3xh[16:1]/5xh[16:1],{4}2xh[8:1]/6xh[8:1],7b/1b-3[8:1],
5/1-6[8:1],1/5h[8:1],{8}7/5,8/6,7/1-5[8:1],2/8,
{4}3/1-3v8[4:1],{8}5/1,6,{4}7bx-5[8:1]*-3[8:1],7,
2b-6[8:1],2/4h[8:1],4h[8:1]/7h[8:1],{8}4/7,8/5,
1/6,2/7,{4}3/8-3[8:1],8b/4bh[8:1],{8}4/2,5/1,
{4}6/8-3[8:1],8/5h[8:1],{8}2/4,1/3,2/8-4[8:1],7/1,
{4}6/8-6v1[4:1],{8}4,3,{4}2bx-4[8:1]*-6[8:1],2,
7b-3[8:1],7/5h[8:1],5h[8:1]/2h[8:1],{8}5/2,1/4,
8/3,7/2,{4}6/1v6[8:1],1/5h[8:1],{8}5/7,4/8,
{4}3b/1b,1/6-4>2[4:1],{8}6/2>4-6p2[8:3],1,8,7,
{4}8h[8:1],{8}3/7,4/8,{4}5x/1x-5[8:1],7x/1x<3[4:1],
1x/2x,2-6[8:1],2/4bxh[4:1],{8}7,4/7,
5/8,6/1,{4}2/7v4[8:1],{2}7b/2bx-5-1[4:1],
{4}6<1[8:1],6/3<5-7[4:1],{8}3/7-5>3q7[8:3],8,1,2,
{4}1h[8:1],{8}6x/2x,5x/1x,{4}4x/8x-4[8:1],2x/8x>6[4:1],
8x/7x,7-3[8:1],7/5bxh[4:1],{8}2,5/2,
4/1,3/8,{4}7-4[8:1]/2-5[8:1],2b/7b,{8}6/3p7[8:1],6/3,
{4}3/5-1[8:1],{8}5/3p7[8:1],2,5-1[8:1],4,{4}3h[8:1],
{8}6/4-8[8:1],3,5-1[8:1],6,2-7-2[4:1],3,4,5,
{4}5h[8:1],{8}5/4,4/6,4-8[8:1]/7-5[8:1],5/8,,,3/6,
2,8/1-5-1[4:1],2,8-6-2[4:1],7,,,{4}4-8[8:1],
{8}4/6q2[8:1],7,4-8[8:1],5,{4}6h[8:1],
{8}3/5-1[8:1],6,4-8[8:1],3,7-2-7[4:1],6,5,4,
{4}4h[8:1],{8}4/5,5/3,5-1[8:1]/2-4[8:1],4/1,,,{4}2b/5b,
7b/4b,{8}3xh[16:1],3xh[16:1],{4}2x/8x,
{8}4x/5x,5x/4x,{4}7b/2b,{16}3/5,,,4,{4}6/4h[8:1],
{8}4/6,{16}6,6,{8}5,5,{16}4,5,{8}4,4/2,5,
5b/4h[8:1],5,6/4h[8:1],6,7/4h[8:1],7,{4}8h[8:1]/4h[8:1],
{8}4/8,{16}3,3,{8}4,4/6,4-8[8:1]/7-5[8:1],5/8,{4}4/7,
{16}5,4,5,4,5,4,5,4,5,4,5,4,5,4,5,4,
7x,3,4,3,4,3,4,3,5,2,4,3,5,2,4,3,
5x,2,4,3,5,2,4,3,6,3,5,4,7,5,6,4,
{8}6xh[16:1]/5xh[16:1],6xh[16:1]/5xh[16:1],4xh[16:1]/7xh[16:1],6xh[16:1]/5xh[16:1],{4}4xh[8:1]/7xh[8:1],3b/8-5[8:1],
4,{8}4,4,{4}4/5,{8}4/5,4,
4/5,6,4/5,3,{4}4/5,{8}5/4,4/5,
{4}3/5,{8}3/5,3,{4}3/5,{8}3/5,5,
5/3,2,3/5,6,{4}3/5,{8}3bx/5bx,4/6,
{4}5/7,{8}5/7,5,{4}7/5,{8}5/7,5,
5/7,8,7/5,4,{4}5/7,{8}7/5,4/8,
{4}2b/1b,C/B3/B8,2b/1b,C/B7/B4,
{16}6,5,{8}6,{16}3,4,{8}3,3xh[16:1],3xh[16:1],7xh[16:1],7xh[16:1],
4/6,6/4,2b/8b,8,{16}3,4,{8}3,2/5,{16}5,3,
{8}6/3,{16}6,5,{8}6,{16}3,4,3,4,{8}3,3/5-2[8:1],6/4,
{16}7/5,,,6,{8}5,3/5,{16}6,5,{8}6,7/4,{16}4,6,
{8}3/6,{16}3,4,{8}3,{16}6,5,6-3[8:1],5,{8}6-1[8:1],{16},,,,4,
5,4,5,4,5,4,5,4,5,4,5,4,5,4,5,
2x,6,5,6,5,6,5,6,4,7,5,6,4,7,5,6,
4x,7,5,6,3,8,5,6,2,1,4,7,2,1,3,8,
{8}2bx/3bxh[2:1],1,{4}8,8h[8:1],{8}8q5[16:3]/2p5[16:3],8/2,
{1}8bx/2bx,
E
