&title=〚盲従〛~Fantasia Sonata Flower
&artist=P3-Studio
&first=0
&des=Noel
&lv_5=14
&inote_5=(190){1},,{32},
{8}1h[8:3],,,2,2h[8:3],,,3,3<6[4:1],,6q3[4:1],,3,,8h[4:1],,,,,,6h[4:1]/5h[4:1],,,,5>2[4:1],,2<7[4:1],,7,,,,6h[8:3],,,4,4h[4:5],,,,7,7,6,6,5,,5<1[4:1],,1>5[4:1],,5<1[4:1],,1>5[4:1],,5pp1[4:3]*qq1[4:3],,,,,,,,,,E1/E8,,,,,,C/E2,,E4/E5,,,,,,B7/A7,,B6/A6,,,,A5/B5,,,,4h[4:1],,
{16}7,6,5,4,3,2,1,8,7,6,5,4,8,7,6,5,7,6,5,4,6,5,4,3,
{8}2hb[4:3],,,,,,,,,,
{8}2/5h[4:1],,2,,6h[4:1]/3,,3,,7h[4:1]/4,,4,,5/8h[4:1],,5,,58,,52,,57,,53,,5<8[8:1],,5>2[8:1],,5,,,,4/8h[4:1],,4,,3/7h[4:1],,3,,26,2,26,2,26,,1-4[8:1],,7-3[8:1],7,2-6[8:1],2,8-4[8:1],8,1-5[8:1],1,8<5[8:1],,8b>3[8:1]/2x,,8b<5[8:1]/6x,,8b/2x,,5bx/2bx-5-7-4-2[2:1],5bxh[8:5]/2bx,,,,,,,3hbx[8:5]/7bxV51[2:1],,,,,,,,8hbx[8:5]/2bxv3-5[2:1],,,,,,,,1bx/7bx<4v6[2:1],,,,,,,,1bx>4[2:1]/6bx,1bx/6bx,,,7,,8,,8bx<5[2:1]/4bx,,3,,2,,1,,1-5[8:1]/5,,17,,8-4[8:1]/4,,82,,1>4[8:1]/5,,
{16}15,6,7,8,1,2,3,4,5,6,7,8,1/5qq1[2:1],,1bx/5bx,,,,,,8,,,,7,,,,6bxqq1[2:1]/1bx,,,,1,,,,2,,,,3,,,,
{8}4bx>7pp3[4:3],,,,6,6,5,5,5>1[4:1]*<1[4:1],,,,,,1-5[8:1],,1/8-4[8:1],,8/3-7[8:1],,3/6-1[8:1],,6/2-5[8:1],,2/7-3[8:1],,7/8-4[8:1],,8/1-5[8:1],,1/2-6[8:1],,21,8,7,6,5,45,
{16}3,4,3,4,2q3-5-7-1>2-4-6-8-3<5-7>8[16:28],,,,,,,,,,,,,,,,,,,,,,,,,,,,,,,,,,1,2,3,4,2,3,4,5,3,4,5,6,4,5,6,7,5,6,7-5[8:1],,,,7/1-4[8:1],,,,1/7>2[8:1],,,,7b,,,,,,3,,24,,6,,57,,8,,1-3[8:1]*-4[8:1],,,,1-7[8:1]*-6[8:1],,,,1-5[8:1],,,,,,,,8w4[8:1],,,,,,,,24,,3,,57,,6,,4>6[4:1],,,,,,5<3[4:1],,5,,,,,,,,3>7>3[4:3],,,,,,7,,6,,5,,4,,5,,6q2[4:1],,,,2>5[4:1],,,,5q1[4:1],,,,1,,,,2,,3,,48,,4,,7,5,7,5,8,6,8,6,8b-4[8:1],,,,1-3[8:1]/8b,,,,1b<4[4:1]/3,,,,,,,,8hb[8:3],,,,,,2p6[8:1],,2,,4q8[8:1],,4,,2,,1>4[8:1]*-3[8:1],,,,1<6[8:1]*-7[8:1],,,,1-5[8:1],,,,,,,,8<3[2:1],,,,,,3,,2,,1,,8,,7,,6<3[4:1],,,,6,,5-1[8:1],,5,,,,,,,,1-3[8:1]/8-4[8:1],,,,1-5[8:1]/8-6[8:1],,,,1-3[8:1]/8-4[8:1],,,,18,,,,8-4[8:1]/7-5[8:1],,,,8-2[8:1]/7-3[8:1],,,,8-4[8:1]/7-5[8:1],,,,78,,,,46,,63,,62,,61,,7,8,7,8,7,8,7,8,1b/6b,,,3b/7b,,,8b/4b,,5-1[8:1]/4-8[8:1],,,,,,,,1,2,3,4,8,7,6,5,2,3,4,5,7,6,5,4,1,2,3,4,2,3,4,5,3,4,5,6,4,5,6,7,81,2,3,4,7,6,5,4,6,5,4,3,8,7,6,5,8,1,2,3,7,6,5,4,3,2,1,8,7-4[4:1],,,,4-1[4:1],,,,1-6[4:1],,,,6-3[4:1],,,,3-8[4:1],,,,8<5[4:1],,,,5p8[4:1],,,,8<5[4:1],,,,5,,,,2-5[8:1],,1,,2/8-4[8:1],,7,,8/1-5[8:1],,2,,8-4[8:1]/1,,7,,18,,2,,3,,4,,45,,36,,27,,18,,
{32}1,2,3,4,
{8}7,86,1,28,6,75,3,24,1-5[8:1],1,7-3[8:1],7,2-6[8:1],2,5,5,75,6,14,2,7,68,1-4[8:1],1,1/6-1[8:1],6,2-5[8:1]/6,2,27,7,6,
{16}5,6,5,6,4,7,4,7,3,8,3,8,2,1,2,1,3,4,3,4,2,5,2,5,1,6,1,6,8,7,8,7,16,,1,,17,,1,,1,8,1,8,1,8,
{32}1,2,3,4,
{1}5-1b[2:1],
{16}8V64[8:1],,,,,,2-6[8:1],,1,,2/4-8[8:1],,5,,34,,2,3,4,5,8,7,6,5,1bh[4:1],,,,,,,,7v4[8:1]/4v7[8:1],,,,,,,,7-3[8:1],,8,,7/1-5[8:1],,2,,1/6<3[4:1],,,,,,5qq2[4:1],,5,,,,,,,,6<2[4:1],,,,2>6[4:1],,,,6<2[4:1],,,,2>6[4:1],,,,7,,8,,1,,2,,3-1[8:1]*-8[8:1],,,,3,,,,7-5[8:1],,,,7/2-4[8:1],,2,,8-6[8:1],,8,,1-3[8:1],,1,,7-3[8:1],,7,,8-4[8:1],,8,,1-5[8:1],,1,,2-6[8:1],,2,,
{8}8b<1[1:1],,,,,,,,,,,,1,,2,,3/4q7[2:1],,,,,,,,,,,,8,,7,,6/E5,,C/2,,7/B4,,B6/2,,7,7,2,2,8,8,1,1,
{16}1,8,1,8,1,8,1,8,1,8,1,8,1,8,1,8,1,8,
{32}1,2,3,4,5,,,,8,7,6,5,
{16}4,,,,2-6[8:1],,,,2b>4-8[4:1],,,,8<6-2[4:1],,8,,,,1w5[8:1],,,,1,,,,,,2>5[8:1]/6<1[8:1],,,,2p6[8:1]/6p2[8:1],,,,26,,,,1>4[8:1],,,,71,,8<5[8:1],,,,2/8p4[8:1],,2,,,,1,,1,,
{32}1,2,3,4,5,,,,8,7,6,5,4,,,,1,2,3,4,5,6,7,8,
{16}1,,6,,6,,57,,3,,24,,6,,58,,3,,14,,6,,85,,1,,1,,8,,8,,1,2,3,4,5,6,7,8,1,2,3,4,
{32}5,6,7,8,1,2,3,4,
{16}5-7-1-3<4-6-8-2>4-7>8[2:3],,,,,,,,,,,,,,,,,,,,,,,,,,,,,1,2,3,4,2,3,4,5,3,4,5,6,4,5,6,7,8,1,,
{8},,,,,,,,,,,,E6/E5,,,,E2,,E3/C,,,,E8,,E7,,E6,,B1,B2,B3,,,A8,A7,A6,A5,A4,A3,A2,A1,E2,E3,E4,E5,E6,E7,E8,1h[4:1]/2h[4:1],,,,38,,3h[4:1]/8h[4:1],,,,47,,6h[4:3]/5,,,,5,,5h[4:3],,,,,,4,,3,,2,,1,,E1/E8,,E7/E6,,4h[4:3],,,,5,,6h[4:3],,,,,,5,,64,,37,,82,,1-5[1:2],,1,,1,,,,
{2},,,
{16},,,,2,,,,,7,,,,,3,,,,,6,,,,,4,,,,,5,,,,,,4,,,,,,3,,,,,,,3<6[1:2],,
{1},,,
{8},,,4h[4:11]/5h[4:11],
