&title=Better Graphic Animation
&artist=ルゼ
&first=0
&des_1=szhzy
&des_2=szhzy
&des_3=szhzy
&des_4=szhzy
&des_5=szhzy
&lv_5=13+
&des_6=szhzy
&lv_6=14
&des_7=szhzy
&des=szhzy
&clock_count=4
&inote_5=(180)
{4},,,,,,,,
{8}35,,46,,2h[16:3],,17,6,35,2,46,7,3h[16:1],4h[16:1],5h[8:1],6,57,57,8h[8:1],,24,2h[16:1]/4h[16:1],1,8,57,46,35,24,3h[16:1],4h[16:1],5h[8:1],6,
{8}3h[8:1]/5h[8:1],,4h[8:1]/6h[8:1],,3h[16:3]/5h[16:3],,17,6,35,2,46,7,
{16}4,5,4,5,4h[8:1],,5,,6-1[12:1],,,,,,,,3-8[12:1],,,,,,,,
{8}18,,27,,36,,4bx/5bx,,
{16}35,,1,,46,,8,,4h[16:3]/3h[8:1],,,,2,,1,,78,,5,,12,,4,,1,8,2,7,1h[8:1],,6,,35,,35,,2h[8:1],,,,4h[16:3]/6h[8:1],,,,7,,,,1,,8,,2,,7,,3,6,4,5,4h[8:1],,5,,
{16}71,,5,,82,,4,,8h[16:3]/7h[8:1],,,,6,,5,,34,,1,,56,,8,,5,4,6,3,5h[8:1],,2,,6v3[12:1],,,,,,,,2v7[12:1],,,,,,,,18,,,,18,,78,,1-4[12:1]/8-5[12:1],,12,,1bx/8bx,,,,
{8}4qq8[8:7],,,,,,,8>5[8:9],,,,,,,7,,5s1[8:7],,,,,,,1<6[8:3],,,6>4[4:1],,4>2[4:1],,2<8[4:1],,8pp4[8:7],,,,,,,4<2[8:9],,,,,,,,,2pp5[1:1],,,1,,,7,,5q4[8:4],,,,8,,,,
{16}4,5,,4,5,,4,5,,4,5,,36,,27,,8,1,,8,1,,8,1,,8,1,,18,,23,,2,3,,2,3,,2,3,,2,3,,14,,58,,7,6,7,,67,,6,7,,,67,,56,,45,,
{16}3,4,,2,5,,1,6,,8,7,,78,,34,,6,5,,7,4,,8,3,,1,2,,17,,68,,5,7,,4,6,,3,5,,2,4,,35,,17,,1,8,2,,7,,3,6,,,45,45,3b/6b,,,,
{4},,,,,,,,
{16}B1,,B2,,B3,,B4,,B5,,B6,,B7,,B8,,B1,B2,B3,B4,B5,B6,B7,B8,B1,B2,B3,B4,Cf,,,,
{4}1h[2:1],2,3h[2:1],4,5h[2:1],6,7h[2:1],8,6h[2:1],5,4h[2:1],3,2h[2:1],1pp4[8:3]*qq6[8:3],1,,
{16}3b/7b,,,,46,,,,3b,7,2,8,1b,,,,1-5[16:1],,,,1b,,,,1w5[16:1],,,,
{64}1bx,B1,C,B5,,,,,,,,,,,,,
{16}E5h[4:3]/8h[4:3],,,,,,,,,,,,B4,B3,7h[4:3]/E3h[4:3],,,,,,,,,,,,B2,B1,6q3[8:5]/E1h[8:1],,,,6/Ch[8:5],,,,,,,,,,,,,,3h[4:1]/B6h[4:1],,,,,,2h[8:1]/B5h[8:1],,,,1-6[12:1]/B4h[8:1],,,,1/B3h[8:1],,,,Ch[8:5]/1q6[8:3],,,,,,,,,,,,,,6>1[8:5]/B7h[8:7],,,,,,,,,,,,,,,,,,8h[4:1]/B6h[4:1],,,,,,1h[4:1]/B5h[4:1],,,,,,2-7<6-3[4:3]/B4h[8:1],,,,2/Ch[8:4],,,,,,,,,,,,,,,,
{8}7h[4:3],4,,4,,4,,6h[4:3]/4,,4,,4,,4,5h[8:1],1,4h[4:3],2,,3,,5,,5h[4:1]/4,,6,4h[8:1],6,1h[8:1],8,2h[8:1],7,4h[4:3],6,,6,,6,,3h[1:1]/1,,8,,7,,6,,5,
{16}45,,3,4,2,,34,,45,,6,5,7,,56,,4,5,3,6,2,7,1,8,
{8}1-4[16:1]/8-5[16:1],27,1b/8b,,
{16}45,,2,4,3,,18,,2-5[12:1],1,2,1,2,,7,,54,,7,5,6b,,81,,7b-4[12:1],8,7b,8,7,,2,,
{16}56,,3,4,2,4,3,,7<4[12:1],1,8,1,7,,2,,43,,6,5,7,5,6,,2>5[12:1],8,1,8,2,,7,,
{16}4,5,4,5,3,6,3,6,2,7,2,7,1,8,17,,,,1b/6b,,,,8b/3b,,8b/3b,,,,8b-4[12:1],1b,8b,1b,8b,,,,2bx,7,3,6,4b,5,3,6,2b,7,1,8,2bx,1,3,8,4,7,5,6,3x,4,2,5,3,6,2,7,
{16}1bx,8,1,8,1,8,1,8,1,8,1,8,1,8,1,8,1x,8,2,7,1,8,2,7,1,8,2,7,1,8,2,7,1x,8,1,8,1,8,1,8,1,8,2,7,3,6,4,5,3x,4,2,5,1,6,8,7,8,7,1,6,8,7,1,6,1b,7,1,7,2b,6,2,6,3b,5,3,5,4b,6,4,6,5b,7,5,7,4b,8,4,8,3b,1,3,1,2b,4,2,4,3b,5,3,5,4b,6,4,6,3b,7,3,7,2b,8,2,8,1b,1,1,1,1b-5[12:1],1,1,1,1b/Cf,,,,
E
&inote_6=(180)
{4},,,,,,,,
{16}24,,,,57,,,,12,,,3,5-7[12:1]/4,,6,,4-2[12:1]/5,,2,,54,,7,,1,8,1,8,1,,7,,46,,6,,3h[8:1]/5h[8:1],,,,24,,1,1,8h[8:1],,,,18,,18,,27,,36,,5,4,6,3,7,,8,,
{16}57,,,,24,,,,78,,,6,4-1[12:1]/5,,3,,5-8[12:1]/4,,7,,45,,2,,1,1,1,1,1h[8:1],,7,
{16},5x,6x-1[16:1],,,,,,,4x,3x-8[16:1],,,
{4},3/B7,2/B8,1,
{32}1bx/B1f/E1/E2,B2/B8,B3/B7,E4/E7,,,,,
{16}34,,2,,34,,1,,56,,7,7,6,,8,,18,,2,,18,,7,,1,1,1,1,
{24}2,3,4,7,6,5,
{16}3x/4x,,3x/4x,,78,,16,,25,,3,3,
{32}5h[16:1],,
{40}E6,B6,B7,E8,,
{16},1x/8x,,2x/7x,,36,,45,,5,5,3,3,6,6,4,,
{16}65,,7,,65,,8,,43,,2,2,3,,1,,81,,7,,81,,2,,8,8,8,8,7,1,8,2,1x,2x-5[16:1]*-4[16:1],,,,,,,8x,7x-4[16:1]*-5[16:1],,,,,,,18,,,,1s5[90#16:1]/8z4[90#16:1],,23,,45,,67,,1b/8b,,,,
{16}A6,E6,E5,A4,B7,C,B3,A3,A8,E1,E2,A2,D3,A3,A6,E7,E8,A8,B5,C,B1,A1,A4,E4,E3,A2,D2,A1,E7h[8:1]/B6h[8:1]/E6h[8:1],,,,A1,E1,E8,A7,B2,C,B6,A6,A3,E4,E5,A5,,,B7h[8:3]/B6h[8:3]/E7h[8:3],,,,,,B3h[4:1]/E4h[4:1]/A3h[4:1],,,,A8h[4:1]/E1h[4:1]/D1h[4:1],,,,E2h[4:1]/B2h[4:1]/E3h[4:1],,,,
{16}B8,B7,B6,B5,B1,B2,B3,B4,E1,E8,E7,E6,E5,E4,D1,D2,D3,D4,B7,B6,B5,B4,A4,A5,A6,A7,A8,A1,A2h[4:1]/E3h[4:1]/D3h[4:1],,,,E8h[8:3]/B8h[8:3]/B7h[8:3],,,,,,E4h[8:3]/E3h[8:3]/A3h[8:3],,,,,,A7h[4:1]/D7h[4:1]/E7h[4:1],,,,B4,B5,B6,B7,B8,B1,B2,B3,5,4,3,2,1,8,7,6,
{16}4,4,,5,5,,4,4,,5,5,,
{48}4bx,E4,B3,B2,E2,,4bx,E5,B5,B6,E7,,
{16}1x,1x,,7,7,,1,1,,7,7,,
{40}1bx,B1,C,B5,,7bx,B7,C,B3,,
{16}4x,4x,,6,6,,4,4,,6,6,,
{48}4bx,E4,B3,B2,E2,,6bx,E7,B7,B8,E1,,
{16}2x,8x,1x,,7,,1,7,,,
{40}1b,E2,E3,A3,,8b,E8,E7,A6,,1b,E2,B3,E5,,
{16}6x,5x,,6,5,,5,4,,4,3,,
{48}4bx,E5,B5,B6,,,3bx,E3,B2,B1,,,
{16}7x,8x,,2,1,,3,4,,6,5,,
{48}6bx,E7,B7,B8,,,2bx,E3,B3,B4,,,
{16}1x/5x,1x/5x,,48,48,,37,37,,26,26,,
{48}2b,E3,B3,B4,,,6b,E7,B7,B8,,,
{16}3x,6x,4,,5,,24,24,,,1b/8b,1b/8b,2b-6[12:1]/7b-3[12:1],,,,
{4}2/7/Chf[96:1],,,,,,,,
{16}4,5,4,5,3,5,3,5,2,5,2,5,1,5,1,5,8,4,8,4,8,4,8,4,
{32}1,2,3,4,5,6,7,8,1b/5b,,,,,,,,
{16}3,,4,,3,5,,,3h[16:3],,,6,3h[8:1],,7,,,,3,,8,3,,,1h[16:3],,,3h[16:3],,,2,,5,,4,,5,3,,,5h[16:3],,,2,5h[8:1],,1,,,,5,,8,5,,,7h[16:3],,,5h[16:3],,,6,,
{16}4b/5b,,3,,6,2,,,1b,1,1,1,1b,,2,,7,,6,,3b,7,,,1-5[12:1],,,8,
{48}1b<8<7<6>5>4>3>2<1<8<7[8:9],B1h[96:1],Chf[96:1],B5h[96:1],,,,,,,,,
{8}1,,,,,,,7<6>5>4>3>2<1<8<7[8:9],,,,,,,6,,7<6>5>4>3>2[8:7],,,,,,,2<1<8<7<6>5>4>3>2[8:9]*<1<8<7<6>5>4>3>2[8:9],,,5,,4,,3,,2<1<8<7<6>5[8:7]*<1<8<7<6>5[8:7],,,,,,,5>4>3>2<1<8[8:9]*>4>3>2<1<8[8:9],,,,,,,,,8<7<6>5>4>3>2b[1:1],,,4,,,3,,2<1<8<7b[2:1],,,,7w3b[8:1],,
{32},B7,C,B4/B3/B2,,,,,
{8}1h[4:3],E5h[8:27],,B5,,B4,,2h[4:3]/B5,,B4,,B5,,B4,3h[8:1],B5,2h[4:3],B4,,B5,,B4,,1h[4:1]/B5,,B4,8h[8:1],B5,7h[8:1],,6h[8:1],E1h[4:7],7h[4:3],B8,,B1,,B8,,5h[1:1]/B1,,B8,,B1,,B8,,,
{24}2b/6b,,,7,6,5,43,,,26,,,3b/7b,,,2,3,4,56,,,73,,,
{16}3,4,2,8,1,7,5,6,
{32}3b,4,5,6,7,8,1,2,3b/8,B8,C,B4,,,,,
{16}35,,2,4,1,,7,5,8<5[12:1],2,1,2,8,,34,,1,,7,5,6b-1b[12:1],,2-5b[12:1],,6b,,2b,,8,,2b,3b,4b,,7,8,6,,5,4,1,2,4,3,8,1,6,5,7,4,7,4,5,2,5,2,8,1,8,1,7,8,7,8,
{16}16,,6,8,7,1,8,2,1,3,4,2,5,3,2b/6b,,,,4b/8b,,,,7b/3b,,1b/5b,,,,15
,26,37,48,1bh[8:1]/5bh[8:1],,,,1bx,5,8,4,7b,3,6,2,5b,1,4,8,6bx,1,5,2,4,3,5,4,5x-2[12:1]*-8[12:1],,,,5x,,,,
{16}1bx,1,1,1,1,1,1,1,1,1,1,1,1,1,1,1,3x,3,3,3,3,3,3,3,3,3,3,3,3,3,3,3,5x,5,5,5,5,5,5,5,5,5,5,5,5,5,5,5,7x,7,7,7,7,7,7,7,7,7,7,7,7,7,7,7,1bx,1,1,1,1b,1,1,1,1b,1,1,1,1b,1,1,1,1b,1,1,1,1b,1,1,1,1b,1,1,1,1b,1,1,1,1b,1,1,1,1b,1,1,1,1b,1,1,1,1b,1,1,1,1b,1,1,1,1b-5b[8:1],1h[32:1],1h[32:1],1h[32:1],1b,B1/B2/B3/B4/B5/B6/B7/B8`Ch[32:1]f,,,,
E
