&title=毛八毛八
&artist=LeaF
&first=0
&lv_5=12+
&des_5=五月の花
&inote_5=
(100){4},,,,,,{2}Ch[2:1],
{16}4,5,4,5,3,6,3,6,2,7,2,7,3,6,3,6,
1,8,2,7,3,6,4,5,7,3,5,1,5,6,5,6,
{8}6h[8:1],1,3h[8:1],8,{16}2,3,2,3,{8}2-5[8:1],{16}2,6,
{8}1/2-4[8:1],{16}7,1,{8}2/3,6h[4:1],E5,B3,{60}6h[16:3],D8,,{30}D1,D8,D1,D8,{15}D1,
{8}4/5,3,4/5,6,{16}B8/E8,B1/E2,E7/E6,E3/E4,{8}C,{16}Ch[8:3],6,
{8}7,{16}2,3,{8}4,2/3,5,3/4,{32}D1,D2,D1,D2,D1,{96}D2,3h[12:1],,{32}D1,4h[32:3],
{16},{48}E1,5,,{16}B7,B7,{8}3/B7,2/E6,{16}1/E6,E5,1/E6,1/E5,{8}1/E6,6/B8,
5/E2,{16}6/E3,E4,{8}7/D5,6/B2,6/B2,{16}6/B1,6,{8}6/E4h[16:3],6,
8p4[4:1],{16}C,C,{8}4-2[4:1],B1,{16}2V85[8:1],B1,B8,B5,{8}E4,{16}2,3,
{4}2/1h[8:1],{8}5/4,5/4,6/3,E2,{4}B3/Cfh[4:1],
{8}7,{16}6,6,{8}5,1/4,{16}7/6,8/5,7/6,8/1,{8}7/2,{16}1,2,
{8}3/4,{16}5,6,{8}8/7,1,2/3,2w6[8:1],{64}A3,D4,{32},,,{8}2b,
4v1[16:3],{16}2q8[16:1],2x,{4},{16}7,4,6,5,{8}6q2[8:1],{16}3,2,
{8}6p7[8:1],{16}6,6,{8}6,6h[16:1],5/4,6/3,{4}8b/1b,
{16}7h[8:1],2,3,2,7h[8:1],1,2,1,6h[8:1],4,3,4,6h[8:1],2,4,2,
5h[8:1],4,4,4,5h[8:1],2,2,2,6h[8:1],1,1,1,6h[8:1],3,3,3,
8,1,8/6bh,1,2,1,2/5bh,1,2,8,1/6bh,8,1,3,2/5bh,3,
4/5,4/5,,3/6,{8}4/5,1/8,{64}3/6,{32},,,{64}1,{16}2h,1/8,{4}4/3-8b[4:9],
{24}B2h[4:1],B3f,{96},,,,,,,3q7q3b[0.225##1.2],Cfh[12:1],,{32}4-2-6b[1.35##1.2],5s1b[2.475##1.2],{4}3bx/D3f/D4f/6p8b[3.6##0.9],,,,,,,,{8}2,
{16}2/3,1,{64}7/6,E7,{32},,,{64}5,D5,{32},,,{64}4,D5,{32},{16}5,5/4,5/4,
{8}5,{16}7,6,{64}7/6,D7,{32},,,{16}2,3,{8}2/3,1/2,{64}5,D6,{32},,,{16}6/5,8,
{8}2/1,3,{32},{96}B2,Ch[24:7],,{32}B5,A5,{24},{48}E3,A3,D4,A4,E7fh[48:5]/B6fh[48:5]/B7fh[48:5]/A7fh[48:5],B3,B4,B5,E6,A6,{64}1,8,,{2368},,,,,,,,,{37}1,8,1,{925},,,{25}8,1,8,1,{675},,,,{27}8,1,
{24}8,1,{60},{10}8,{15}1,,8,{45},,{9}1,{153}8,,,,,1,,,,,,,,,{17}8,1,8,{221},,,,,{13}1,8,
{48}1/Ch[4:1],{4},{48}2h[24:5],{12},{8}D2h[24:1],3h[48:11],D3h[48:5],{12}4h[48:11],{48}A2,B2,B1,{96}B8,E8,{192},{64}B7,E7,A6,{32}D6,
{72}5h[48:11],{9},,{72}D6,6h[48:11]/D5,D4,D3,D2,D1,D8,D7,A5h[72:7],,,,,,,,A4fh[72:0],D4fh[72:0],,{24}6h[48:5],E2,E2f,7h[48:5]/E2f,E2f,E2f,{64}1/8h[48:11],D2,2,D3,3,D4,4,D5,{32}5,6,{16}7,
{32}7,2b,{80}1b,{40},{80}2b,{48},{420}1b,{70},,,{420}2b,{30},{28}1b,{224}3h[60:13]/D5f,{112},,,{224}D6f,{112},,,{16}D7f,{24}D8,D1,D2,{16}4h[90:19],{64}Ch[8:1],B1,B2,B3,B4,B5,B6,B7,{16}B8,{64}5h[180:41],D6f,2/D5f,D6f,{32}1/D5f,2/D6f,{24}1/D5f,2,1,
{64}6h[9:2]/B1h[8:1],{8},{64}B2/B3/B4,{32},B5/E5/E4/E3,B1/D2,{64}7h[36:7],2,{160}3,{80},{160}4,,{240}D5f,5,{80},{27}6,{216}8b,D1f,{108},{1494}1b,{249},,{1494}2b,,,,,,,,,,,,,,,,,,{83}3b,4b,5b,{166},,,,,,,,,{24}5/D4f/B3f/A4f/B8fh[8:5],{48}6,B2f/E2f/E3f/A2f,{24}5,E7f/E6f/A6f,{48},{16}E5f/A5f/D5f,{24}2/Cfh[8:3],3,2,E4f/B3f/E3f,{48}8,E1f/B1f/E2f,{24}7,
{16}6/D1f,A3f/D4f,{40},3,2,1,8,{64}7/D3h[24:0],6,5,1,{128}2,3,4,5,{288},,,,,{72}8,7,{234}6,,,,,,,,E2h[13:1],{117},{39}5b,{78}8b,3b,6b,{4992}2h[32:1]/D7h[24:0],{2496},,,,,,,,,,,,,,,,,,,{4992}3,{2496},,,,,,,,,,,,,,,,,,,{128}4,5,6,7,8,1,{64}2,{128}3b,4b,B8,3b,{64},{32}B7,8h[32:3]/B7/B5/E3,{128},{30336}7,{15168},,,,,,,,,,,,,,,,,,,,,,,,,,,,,,,,,,,,,,,,,,,,,,,,,,,,,,,,,,,,,,,,,,,,,,,,,,,,,{30336}D7f,{10112},,,,,,,,,,,,,,,,,,,,,,,,,,,{15168}6,{7584},,,,,,,,,,,{15168}D6f,{10112},,,,,,,,,,,,,,,,,,,,,,,,,,,,,,,,,,,,,,,,,,,,,,,,,,,,,,,,,,,,,,,{30336}5,{474},{30336}D5f,{10112},,,,,,,,,,,,,,,,,,,,,,,,,,,,,,,,,,,,,,,,,,,,,,,,,,,,,,,,,{7584}4,{1896},,,,,,,,,,,,,{7584}D4f,{10112},,,,,,,{30336}3,{5056},,,,,,,,,,,,,,,,,{30336}D3f,,,,,,,,,,,,,,,,,,,,,,,,,,,,,,,,,,,,,,,,,,,,,,,,,,,,,,,,,,,,,,,,,,,,,,,,,,,,,,,,,,,,,,,,,,,,,,,,,,,,,,,,,,,,,,,,,,,,,,,,,,,,,,,,,,,,,,{15168}2,{1264},,,,,{15168}D2f,{30336},,,,,,,,,,,,,,,,,,,,,,,,,,,,,,,,,,,,,,,,,,,,,,,,,,,,,,,,,,,,,,,,,,,,,,,,,,,,,,,,,,,,,,,,,,,,,,,,,,,,,,,,,,,,,,,,,{128}1,{32}D2h[24:0]/B2fh[16:1],7,7,4,6,5,3,3,
{37}D1f/D6h[24:0],4,{592}3,{148},{592}E3f,{64},{82880},,,,,,,,,,,,,,,,,,,,,,,,,,,,,,,,,,,,,,,,,,,,,,,,,,,,,,,,,,,,,,,,,,,,,,,,,,,,,,,,,,,,,,,,,,,,,,,,,,,,,,,,,,,,,,,,,,,,,,,,,,,,,,,,,,,,,,,,,,,,,,,,,,,,,,,,,,,,,,,,,,,,,,,,,,,,,,,,,,,,,,,,,,,,,,,,,,,,,,,,,,,,,,,,,,,,,,,,,,,,,,,,,,,,,,,,,,,,,,,,,,,,,,,,,,,,,,,,,,,,,,,,,,,,,,,,,,,,,,,,,,,,,,,,,,,,,,,,,,,,,,,,,,,,,,,,,,,,,,,,,,,,,,,,,,,,,,,,,,,,,,,,,,,,,,,,,,,,,,,,,,,,,,,,,,,,,,,,,,,,,,,,,,,,,,,,,,,,,,,,,,,,,,,,,,,,,,,,,,,,,,,,,,,,,,,,,,,,,,,,,,,,,,,,,,,,,,,,,,,,,,,,,,,,,,,,,,,,,,,,,,,,,,,,,{35}7,{280}6,{140},{280}D7f,{64},{29120},,,,,,,,,,,,,,,,,,,,,,,,,,,,,,,,,,,,,,,,,,,,,,,,,,,,,,,,,,,,,,,,,,,,,,,,,,,,,,,,,,,,,,,,,,,,,,,,,,,,,,,,,,,,,,,,,,,,,,,,,,,,,,,,,,,,,,,,,,,,,,,,,,,,,,,,,,,,,,,,,,,,,,,,,,,,,,,,,,,,,,,,,,,,,,,,,,,,,,,,,,,,,,,,,,,,,,,,,,,,,,,,,,,,,,,,,,,,,,,,,,,,,,,,,,,,,,,,,,,,,,,,,,,,,,,,,,,,,,,,,{39}7,{624}8,{156},{624}D8f,{312},,,,,,,,,,,,,,,,,,,{128}6,D6f,{64}5,{128}2,D3f,{64}3,{128}6,D6f,{64}5,{128}1,D1f,{64}8,{128}6,D7f,{64}7,{128}1,D1f,{64}8,{528}5bh[16:5]/4bh[16:5]/D3f,A2,{64},,,{2112},,,,,,,,,,,,,,,,,,,,,,,,,{32}D1h[24:0],{16},{64}D4f,D3f,D2f,D1f,D8f,D7f,D6f,D5f,{32},{16}D2h[24:0]/B3fh[4:1],{64}3b/B2fh[4:1],4,5,6,{32},,,,,6,
7,6,7,{96}6,7b,,{48}6b,7b,6b,{108}D6fh[16:0],7h,{7884},,,,,,,,,,,,,,,,,,,,,,,,,,,,,,,,,,,,,,,,,,,{73}6,5,4,3,{219}2b,7h,{7008},,,,,,,,,,,,,,,,,,,,,,,,,,,,,,,,,,,,,,,,,{96}6,5,4,3,2,{48}1bx,{120},{40}5,4,3,{48}6/D8fh[16:0],8,1,2,{204}3,{68},{204}4,{102},{68}5,6,7,8/1,{34}3h[136:27],{408},{96}5b,E6f,{48},{32}6b/D2fh[16:0],{96}D7f,7b,,{48}D8f,{3504}8b,{64},{14016},{3504}4,{64},{14016},,,,,,,,,,,,,,,,,,,,,,,,,,,,,,,,,,,,,,,,,,,,,,,,,,,,,,,,,,,,,,,,,,,,,,,,,,,,,,,,,,,,,,,,,,,,,,,,,,,,,,,,,,,,,,,,,,,,,,,,,,,,,,,,,,,,,,,,,{584}5b,{73},{584}4,{2920},,,,,,,,,,,,,,,,,,,,,,,{40}5b,4b,{820},{41}5b,4b,
{42}5b/D3fh[16:0],{462}4b,{154},,,{462}5b,{924},,,,,,,,,,,,,,,,,,,{132}4b,,5b,{528},,,,,,,{912}4b,{57},{912}5b,{304},,,,,{57}4b,{1387}5b,,,,,,,,,D4f,{4161},,,,,,,,,,,,,,,,,,,,,,,,,,,,,,,,,,,,,,,,,,,{912}4b,{456},,,,,{912}3b,{3648},,,,,,,,,,,,,,,,,,,,,,,,,,,,,,,,,,,,,,,,,,,,,,,,,,,,,{64}2b,1b,8b,{292}1b/D4fh[16:0],{146},{292}A2f,{64},{4672},,,,,,,,,{64}6,4x,{32}5,3,{64}5,4,5,4,{80}1b,2,3,8b,7,{32}6xh[10:1]/D5fh[16:0],4x/B4f/B3f,3x/B2f/B3f/E4f,{3104}2x/E2f/B1f/B2f/E3f,{776},,,,,,,,,,,{3104}2,,,,,,,,,,,,,,,,,,,,,,,,,,,,,,,,{97}3,4,5,{1940},{60}7,6,7,{270}8,8,{180},{108}7,6,{2052}5,{1026},,,,,{2052}4,{22572},,,,,,,,,,,,,,,,,,,,,,,,,,,,,,,,,,,,,,,,,,,,,,,,,,,,,,,,,,,,,,,,,,,,,,,,,,,,,,,,,,,,,,,,,,,,,,,,,,,,,,,,,,,,,,,,,,,{132}1,D6fh[16:0],{66}3,{1056}1,{132},{1056}B8f/E8f/E7f/D5f/D4f/B2f/B1f,{126192},,,,,,,,,,,,,,,,,,,,,,,,,,,,,,,,,,,,,,,,,,,,,,,,,,,,,,,,,,,,,,,,,,,,,,,,,,,,,,,,,,,,,,,,,,,,,,,,,,,,,,,,,,,,,,,,,,,,,,,,,,,,,,,,,,,,,,,,,,,,,,,,,,,,,,,,,,,,,,,,,,,,,,,,,,,,,,,,,,,,,,,,,,,,,,,,,,,,,,,,,,,,,,,,,,,,,,,,,,,,,,,,,,,,,,,,,,,,,,,,,,,,,,,,,,,,,,,,,,,,,,,,,,,,,,,,,,,,,,,,,,,,,,,,,,,,,,,,,,,,,,,,,,,,,,,,,,,,,,,,,,,,,,,,,,,,,,,,,,,,,,,,,,,,,,,,,,,,,,,,,,,,,,,,,,,,,,,,,,,,,,,,,,,,,,,,,,,,,,,,,,,,,,,,,,,,,,,,,,,,,,,,,,,,,,,,,,,,,,,,,,,,,,,,,,,,,,,,,,,,,,,,,,,,,,,,,,,,,,,,,,,,,,,,,,,,,,,,,,,,,,,,,,,,,,,,,,,,,,,,,,,,,,,,,,,,,,,,,,,,,,,,,,,,,,,,,,,,,,,,,,,,,,,,,,,,,,,,,,,,,,,,,,,,,,,,,,,,,,,,,,,,,,,,,,,,,,,,,,,,,,,,,,,,,,,,,,,,,,,,,,,,,,,,,,,,,,,,,,,,,,,,,,,,,,,,,,,,,,,,,,,,,,,,,,,,,,,,,,,,,,,,,,,,,,,,,,,,,,,,,,,,,,,,,,,,,,,,,,,,,,,,,,,,,,,,,,,,,,,,,,,,,,,,,,,,,,,,,,,,,,,,,,,,,,,,,,,,,,,,,,,,,,,,,,,,,,,,,,,,,,,,,,,,,,,,,,,,,,,,,,,,,,,,,,,,,,,,,,,,,,,,,,,,,,,,,,,,,,,,,,,,,,,,,,,,,,,,,,,,,,,,,,,,,,,,,,,,,,,,,,,,,,,,,,,,,,,,,,,,,,,,,,,,,,,,,,,,,,,,,,,,,,,,,,,,,,,,,,,,,,,,,,,,,,,,,,,,,,,,,,,,,,,,,,,,,,,,,,,,,,,,,,,,,,,,,,,,,,,,,,,,,,,,,,,,,,,,,,,,,,,,,,,,,,,,,,,,,,,,,,,,,{239}8b,7,6,5,4,3,{64},{45888},,,,,,,,,,,,,,,,,,,,,,,,,,,,,,,,,,,,,,,,,,,,,,,,,,,,,,,,,,,,,,,,,,,,,,,,,,,,,,,,,,,{96}2/8b,{384}7/E1f/B8f/Cf/B5f/E5f/B4f/B1f,{192},{384}6,{192},{128}5,4,3,2,1,8,{96}7,{768}2b,1,{384},{256}8,7,6,5,4,3,2,1,8,7,6,5,4,3,A3f,B3,{1600}C,{200},{1600}B7,,,,,,,,{200}E7,
{32}8b-4[12:1]/1b-5[12:1],7/2,6/3,{128}5/4,A2/Cf,B2,B1,{256}B8,Cf,{128}E8,A7,E7,{256}A6,B6,C,B3,A3,D3,B2,E2,B1,B8,E8,E8,A7/Cf,D7,{128},,,,,{24}8b-6b[12:1]/1b-3b[12:1],Cf,,{8}2,{24}8b-5b[12:1]/1b-4b[12:1],E7f/D3f,,{8}7,{24}8b-2b[12:1]/1b-7b[12:1],E8f/E2f,,{16}7,3,
{24}8bqq6b[12:1]/1bpp3b[12:1],E1f,,{16}6,2,{24}8bV64b[12:1]/1bV35b[12:1],B8f/B1f,,{16}2,6,{24}8b<5b[12:1]/1b>4b[12:1],D7f/E3f,,{8}7,{24}8bV62b[12:1]/1bV37b[12:1],A7f/A2f,,{8}2,
{24}1bxw5b[8:1],A6f/A3f,,{16}8,1,{24}5bxw1b[8:1],B8f/B2f/B1f,,{8}5bx,{24}1bxw5b[8:1],B4f/B6f/B5f,,{8}1bx,{24}5bxw1b[8:1],{48}B8f/B2f/B1f,1bx,{24},{16}1bx,5bx,
{24}1bxw5b[8:1],E6f/B5f/E5f,,{16}1bx,5bx,{24}5bxw1b[8:1],B1f/E1f/E2f,,{16}1bx,1bx,{24}1bxw5b[8:1],E6f/B5f/E5f,,{8}1bx,{24}5bxw1b[8:1],B8f/B2f/B1f,,{16}5bx,5bx,
{24}5b>2b[8:1],E6f/B5f/E5f,{6},{24}2bqq1b[8:1],A4fh[24:0],{12},E2f/B1f/E1f,{24}1b-6b[8:1],Cfh[24:0],{6},{24}6b-8b[8:1],B8fh[24:0],{12},B6f/B5f/B4f/E5f,
{24}8b-3b[8:1],E7fh[24:0],{6},{24}3b-7b[8:1],B1fh[24:0],{12},A6f/D6f/E6f,{24}7b-2b[8:1],B3fh[24:0],{6},{24}2b-6b[8:1],B8fh[24:0],{12},A8f/E1f/B8f/B1f,
{24}6bv4b[8:1],B2fh[24:0],{6},{4}A6f/D7f/D6f/E6f/3b-1b[8:1]*p7b[8:1],D3f/D4f/A3f/B3f/1bv4-7b[8:1]*q7b[8:1],A1f/E1f/D2f/7b-2>3b[8:1]*>3b[8:1],
A7f/D8f/E8f/3b<7-1b[8:1]*-5v6-1b[8:1],A3f/D4f/E4f/1bqq5b[8:1],{8}D1f/B1f/A1f/E2f/D2f/5b-2-4-6b[8:1],{16}C,C,{8}A5f/D5f/E5f/C/6b-8-2-6b[8:1]*p2b[8:1],C,
{64}6bh/C,E6f,A8f,B5f,E2f,B3f,Cf,A2f,{8}A6f/Cfh[8:1],,B2,6h[8:1],E4,{4}6h[8:1]/4h[16:3],
3h[8:1],{16}7,6,{8}7/A5,{16}2,3,{8}2/B6,{16}5h[8:1]/4h[4:1],{8},{16}E7,
{64},,,,,,,,,D7/D3,{32},,,{8}4,{64}4,A5,{32},,,{8}3,{64}2,A4,{32},,,{16}3,3,{64}3,A1,{32},{64}5,A4,,D8,
{8}5,{64}6,D8,{32},{16}5,{64}6,A7,{32},,,{8}6/A4,{64}6,D7,{32},,,{8}B4,{64}4,D6,{32},,,,,,,{8}E8,
C,{4}E4,{12},{96}1bh[6:1],B7f/B6f/Cfh[32:3],{192},{64}B5f/B4f,B8f/B1f,B2f/B3f,B4f/B5f,B7f/B6f,{16}B8f/B1f,{24}2b,3b,{96}4b,8b,{48},{32}7b,{96}6b,A5,
E
&lv_6=
&des_6=
&inote_6=
(125){4},
E
&lv_7=
&des_7=
&inote_7=
(125){4},
E
