&title=Comet Coaster
&artist=DJ Noriken vs aran
&first=0.0
&des=Rainmaker
&lv_5=14
&des_5=Rainmaker
&inote_5=
(180){4},{8},,,,,,,,,,,,,,,,,,,7b/3b,
{4}3b/7b,
5h[4:1],4,3h[4:1],4,
{8}7x/1x>5[4:1],,,6,{4}6,{8}6,5,
4/7<3[4:1],,,2,{4}2,{16}3x,4,3,4,
{8}2,8,{4}3/7p4[8:3],{8},3,{4}3,
2,8,7,6,
{8}3/5p1[16:3],,,3,{4}3xh[4:1],{8}8,2,
7/3-7[16:3],,,6,{4}6,{16}6x,8,5,1,
{8}6x,4,{4}7h[4:1]/3h[8:1],{8},8/1,7x/2x,{16}6,5,
{1}6bp4[8:3],
Cf/3q5[8:3],
{4}Cf/6pp4[8:3],{16},,,,,,,,2x,6,3,5,
{8}2x,8x,{4}7b/3bp1[4:1],,8,
3b/6qq1[8:3],,,2,
{8}Cf/3pp8[8:3],,,,,7x,{4}7x,
8/1,2/3,5/4,{16}7,2,6,3,
{8}8x,1x,{4}2bxV48[4:1]/7bxV51[4:1],{8},,,,5/7x,
6,6,6,4/2x,3,3,3,
4/8x,7,6,5,7/1x,2,3,4,
{16}3/8x,7,6,5,8x,1,2,3,5x,6,7,8,5x,4,3,2,
{8}1/8b,7,6/2-4[8:1],5,2b,8,{4}5x/7b-5[8:1],
7b/8-4[8:1],8/1-3[8:1],1/7-5[8:1],2qq5[4:1],
6/2,{8}6,8,{4}3/7,{8}8/2qq5[4:1],7,
{4}6/2,{8}6,6,{4}7/5,{16}3,4,2,5,
{8}3,7,{4}4b/6>3[8:1],1x,4/2-4[8:1],
2b/1-5[8:1],1/8-6[8:1],8/2-4[8:1],{8}7pp4[4:1],7,
{4}3,{8}3,1,{4}6/2,{8}2/7pp4[4:1],7,
{4}3,{8}3,3,{4}2/4,{16}6,5,7,4,
{8}6,2,{4}5b/3b,{8}8/1,2,{4}3/7-3[8:1],
7/8-4[8:1],8/1-5[8:1],1/2-6[8:1],2/8qq4[8:3],
8/5x,{8}1,2,{4}3/4x,{8}1/8qq4[8:3],2,
{4}8/3x,{8}1,2,{4}3/4x,{16}6,5,8,4,
{8}7,1,{4}6b/2pp5[4:1],7,8,
6/2-6[8:1],2/1-5[8:1],1/8-4[8:1],8/7-3[8:1],
7/1pp5[8:3],{8}1/4x,5,{4}6,7/5x,
8/1pp5[8:3],1/6x,{8}8,7,6/5x,4,
{16}3x,4,1x,5,{8}2x,8,{4}3b/7qq4[4:1],2,
{8}1bx,2,5,4,7/3,4,6,5,
6/2,3,5,4,7/2,3,{4}5,
{8}8/2b,7,4,5,2/6,5,3,4,
3/7,6,5,4,2/7,3,4bx/8-4[8:1],5,
{16}8,,,3,{8}4x,2,5/3,6,5/7x,8,
6/4,{16}3,4,{8}2x>5[8:1],1,8,7,6,5/4,
{24}4/3bx,2,{12}1xh[4:1],{24},,6x,7,{6}8xh[4:1],{24}2x,3,{12}4xh[4:1],{24},,7x,6,{6}5h[3:2],
{32}2x,3x,{16}4x,{32},,,,2x,3x,{16}4x,{32},,,,2x,3x,4x,5x,6x,7x,8x,1x,{4}2x/6bx,
4b/3<6[8:1],{8}3/7,8,5-1[8:1],7,5,6h[8:1],
{4}2b,{8}3/5,4,7-4[8:1],5,7,1,
1b,7,6-4[8:1],1,6,2-6[8:1],8,2,
{4}7b<4[16:3],{8}7,8,1b,2,6/4,7,
{4}8b/1b,{8}6/2,1,4/8x,7,6/2x,1h[4:1],
8x,7,6/5,4,7/3x,2,1x,8,
7b,2,3-5[8:1],8,3,7p3[8:1],1,7,
2>5[8:1],2,1,8,7,6,3/5,2,
8/1b-5[8:1],7,1>4[8:1],8,1,5,6,7,
3/8-4[8:1],1,8<5[8:1],2,8,3,2,8/1,
7/2,6,5/1,2,8/4,7,6/5,7/4,
{4}8b/3b,{8}7/8,6/1,{4}5b/2b,{8}6/4,7,
8b/1q5[8:1],7,1>4[8:1],8,1,5,6,7,
3/8p4[8:1],1,8<5[8:1],2,8,3,2,8/1,
{16}7x,6,5,4,1x,2,3,4,1x,8,7,6,4x,3,2,1,
{8}5,2,6,3,6,5,{4}7/5-1b[8:1],
{1}Cf/7bs3<3-7[4:15],
,,{4},,{8},1x,
1x,1x,
{1}1xpp3pp5pp7pp1[4:11],
,,{4},,{8},6b/2b,
{4}6b/2b,
{12}3x,5,4,6x,5,7,2x,4,3,5x,4,6,
1x,2,3,8,7,6,2,3,4,7,6,5,
3x,4,2,7,5,6,3x,4,2,7,5,6h[4:1],
1x,8x,7x,6x,5x,4x,3x/8x,1x,2x,3x,4x,5x,
2/6,2,2,4,4,4,5,5,5,7h[4:1],,,3x,
5,4,7x,5,6,2x,4,3,6x,4,5,
3,4,3,6,5,6,1,2,3,8,7,6,
{2}4b/5pp1<4[1:1],E3,
{4}3bh[4:3],,,5,
4/6h[4:3],{8},,,,5,4,
6/3h[4:3],,,4,{4}4,4,
{8}5/2,3,7/4,6,5/1,2,7/3,6,
{4}8/1>4[8:1],7,1/8<5[8:1],2,
3/4,6/5,2/4,{8}7/5,6,
{16}1,8,1,8,2,7,2,7,3,6,3,6,4,5,4,5,
{8}3,2x,1/8,7x,6/4,5x,{16}2x,4,2,4,
{8}3b,{16}8,1,{8}2b/7b,6,6/1,2,{16}8,3,7,4,
{8}6,{16}3,4,1,5,{8}2,4w8[8:1],4x,{4}4x,
{8}6/2,{16}3,4,2,4,{8}1,7/3,{16}6,5,7,5,{8}8,
7b/2b,{16}3,4,,2,{8}1,5/4,{16}7,8,,6,5,7,
{8}8>3[8:1],{16}5,5,,6,{8}6,7/5,8,1/6,2,
3/4,{16}5,4,{8}6,7/3,1/6,{16}2,4,{8}3,5/4,
8bx/6bx,{16}7,5,{8}6,5/4,1bx/3bx,{16}2,4,3,5,4,5,
{8}6x/3x,{16}4,5x,4,6,5x,6,3x,4,{8}3,6/2,7,
{16}1,8,1,8,{4}7b/2b,{16}3,4,2,1,3,5,4,6,
{8}2>5[8:1],{16}1,7,{8}2,8,3/7,{16}5,4,6,5,7,4,
8<5[8:1],,,1,{8}8,2,{16}7/1>4[8:1],,,8,{8}1,7,
5/6,7,8/1,2,3/4,5,6/3,6/3,
2b/4,{16}3,4,{8}3,8,7/5,{16}6,5,{8}6,1,
4/2,3,7/5,6,4/1,3,8/5,6,
{16}1/5b,2,3,4,1,8,7,6,4,3,2,1,7,6,5,4,
{4}1h[8:3],{8}5,5,,6b/2b,{4}6b/2b,
{1}5/4,
{8}3x<2[4:11],,,,,Ch[8:1],,,,,,,,,,,,,,,,3x,
3x,3x,
3x<2[4:11],,,,,Ch[8:1],,,,,,,,Ch[8:1],
,,,,,,,,,,,,,,,5,
5-1[8:1],5,
E
