&title=Spring Carnival
&artist=3R2
&first=0
&des=Maimai Dash
&lv_5=13
&des_5=Maimai Dash
&inote_5=
(180){4},,,,{1}Ch[4:11]/7x>7[2:5],
{8},,,,,,,,,,,,,,,,E7/E3,
C,{16}E6,E5,{8}E4,{16}E8,E2,E6,E4,{4}C,
5x-8[16:1],B2/B3,1x-4[16:1],B7,
7x-4[16:1],B1/B2,3x-8[16:1],B7,
{16}7x,8x,7x,8x,6x,1x,6x,1x,5x,2x,5x,2x,4x,3x,4x,3x,
{32}6xh[8:1]/E4,B3,B2,E2,,,,,3xh[8:1]/E6,B6,B7,E8,,,,,{8}1x-3[16:1]/8x-6[16:1],2x/7x,{4}1b/8b,
6x-8[16:1]/2x-4[16:1],6b/2b,{8}8-3[8:1],3>8[8:1],,,4xV68[4:1],
4x,{4}8V24[4:1],{8}4xv6[8:1],4x,,,{4}3x-1[16:1]/7x-5[16:1],
3/7,{8}1-6[8:1],6<1[8:1],,,5xV31[4:1],
5x,{4}1V75[4:1],{8}5xv3[8:1],5x,,,{4}6x-8[16:1]/2x-4[16:1],
6b/2b,{8}4-7[8:1]/8-3[8:1],3x>8[8:1],,,5>1[4:1],
5,{4}1<5[4:1],{8}5p1[8:1],5,,,{4}7x-5[16:1]/3x-1[16:1],
3/7,{8}5-2[8:1]/1-6[8:1],6x<1[8:1],,,4x<8[4:1],
4,{4}8>4[4:1],{8}4q8[8:1],4,,,{4}6x-1[8:1]/2x-5[8:1],
6b/2b,{8}4x/7x-5[16:1],3-1[16:1],7,3,
5xh[8:1],B1,5h[8:1],B4,5xh[8:1],E2,5h[8:1],E4,
{4}7x-4[8:1]/3x-8[8:1],7/3,{8}5x/2x-4[16:1],6-8[16:1],2,6,
4xh[8:1],B8,4h[8:1],B5,4xh[8:1],E8,4h[8:1],E6,
{4}5-8[8:1]/1-4[8:1],5b/1b,{8}3x/6x-4[16:1],2-8[16:1],6,2,
6xh[8:1],B1/E2,6h[8:1],B4,6xh[8:1],E2/B1,6h[8:1],E4,
{16}4x,5x,4,5,3x,6x,3,6,2x,7x,2,7,1x,8x,1,8,
{8}3x/7x,3x/7x,1x/5x,1x/5x,6x-1[8:1]/2x-5[8:1],7x/3x,{4}Cf/2xq4[4:15]/6xq8[4:15],
,,,,,,,,,,,,,,,,{2}3h[2:3]/B7/B6,
C,
B8/E8,E6,
6h[2:3]/B2/B3,C,
{4}B1/E2,C,E4,C,
5x/1xp4[2:1],6,{8}7,7,,1,
{4}2x/8xp3[2:1],3,{8}1,1,2,2,
{4}4x/8xq5[2:1],3,{8}2,2,,8,
{4}7x/1xq6[2:1],6,{8}8,8,7,{16}6x,5x,
{4}8x/4xq1[2:1],7,{8}6,6,,4,
{4}3x/5xq2[2:1],2,{8}4,4,3,3,
{4}1x/4xh[4:1],8h[4:1],2h[4:1],5pp8[4:3]*qq2[4:3],
,,,,5x/2xh[8:1],
4/7h[8:1],{8}5/2h[8:1],6,{4}7h[8:1],
5/8h[8:1],6/3h[8:1],{16}8/5h[8:1],,,7h[16:1],,3h[16:1],,,{4}4x/7xh[8:1],
5/2h[8:1],4h[8:1]/7h[8:1],5h[8:1]/2h[8:1],
4/1h[8:1],3/6h[8:1],4h[8:1]/7h[8:1],5h[8:1]/2h[8:1],
8x/3xh[8:1],1/6h[8:1],{8}8/3h[8:1],7,{4}6h[8:1],
5/2h[8:1],4/7h[8:1],{16}5/2h[8:1],,,7h[16:1],,3h[16:1],,,{4}5/8h[4:1],
{8}4,3,{4}4/1h[4:1],{8}5,6,
{4}8/3h[8:1],1/6h[8:1],3/7h[8:1],5/2h[8:1],
7b/3x-8[16:1],B5/B6,{8}2/6x-1[16:1],4,{4}B4/B3,
7/4x-1[16:1],B6/B7,{8}2/5x-8[16:1],4,3,2,
{4}7b/1x-4[16:1],1/B7/B6,{8}3/8x-5[16:1],1,2,3,
{4}6/2x-5[16:1],2/B8/B7,{8}3/7x-4[16:1],1,2,2,
{16}4x,3x,4,3,5x,2x,5,2,6x,1x,6,1,7x,8x,7,8,
6x,5x,6,5,7x,4x,7,4,8x,3x,8,3,1x,2x,1,2,
{32}B1,B2,B3,B4,B5,B6,B7,B8,B1,B2,B3,B4,B5,B6,B7,B8,E2,E3,E4,E5,E6,E7,E8,E1,E2,E3,E4,E5,E6,E7,E8,E1,
{4}C,E7/E3,1-3[16:1]/8-6[16:1],1b/8b,
1b>4[8:1]/5b<8[8:1],1/5,{8}3-5[16:1]/7-1[16:1],6x/2x,{4}3/7,
4>1[8:1]/8<5[8:1],4/8,{8}6-4[16:1],2,6,3,
{4}2b>5[8:1]/6b<1[8:1],2/6,{8}8-6[16:1],4,8,3,
{4}4>1[8:1]/8<5[8:1],8/4,{8}6-4[16:1],2,6,1,
{4}2xh[8:1]/5b-7[16:1],{32}1x,2x,{16}3x,,,{8}3x-5[16:1]/7x-1[16:1],6x/2x,{4}3/7,
7xh[8:1]/4-2[16:1],{32}8x,7x,{16}6x,,,{8}6x-4[16:1]/2x-4[16:1],7x/1x,{4}2/6,
3xh[8:1]/6b-8[16:1],{32}2x,3x,{16}4x,,,{4}4xh[8:1]/7b-1[16:1],{32}3x,4x,{16}5x,,,{4}8xh[8:1]/5b-3[16:1],
{32}1x,8x,{16}7x,,,{8}3-5[16:1],6,3-1[16:1],7,
{4}6x-8[16:1]/3x-5[16:1],6/3v8[8:1],{8}3/7,7,{4}5x/2x-4[16:1],
7x-5[16:1]/2x-8[16:1],7/2v5[8:1],{8}2/6,6,4x/7-5[16:1],4x,
{4}2x-4[16:1]/7x-1[16:1],2/7v4[8:1],{8}7/3,3,1x/6x-8[16:1],1,
{4}3x-1[16:1]/6x-4[16:1],3/6v1[8:1],{8}6/2,2,8x/3-5[16:1],8x,
{4}3b-1[16:1]/7b-5[16:1],3/7V15[4:1],{8}7/2-4[16:1],3,{4}2-8[16:1],
6b-8[16:1]/2b-4[16:1],6/2V84[4:1],{8}2/7-5[16:1],6,{4}7,
{16}4x,5x,4,5,3x,6x,3,6,2x,7x,2,7,1x-3[16:1],8x,1,8,
{4}1x-7[32:1]*-6[16:1],1x,{8}5x-7[16:1],2x,5x-3[16:1],2x,
{4}5b-7[16:1]/1b-3[16:1],5/1,{8}3x/7x,2,7x/1x>5[4:1],6x,
{4}5x<1[4:1],1V35[4:1],5V71[4:1],8x,
7x-4[8:1],6-3[8:1],5-2[8:1],4-1[8:1],
3-8[8:1],2-7[8:1],6x,{8}6x/8x>4[4:1],5x,
{4}4x<8[4:1],8V24[4:1],{8}4V68[4:1],4,{4}7x,
6x-3[8:1],5-2[8:1],4-1[8:1],3-8[8:1],
8x-5[8:1],4x-1[8:1],1x-6[8:1],5x-2[8:1],
2x-7[8:1],1x-6[8:1],6x-3[8:1],8x-2[16:1],
4b-2[16:1]/8b-6[16:1],8/4,{8}6x/2x,5,2x/4x<8[4:1],1x,
8x>4[4:1],8,4V68[4:1],4,8V24[4:1],8,{4}1x,
{8}8x-4[8:1],8x,7x-2[8:1],7x,6x-3[8:1],6x,5x-1[8:1],5x,
4x-7[8:1],4x,3x-8[8:1],3x,{4}6x,{8}7x/1x>5[4:1],6x,
5x<1[4:1],5,1V35[4:1],1,5V71[4:1],5,{4}6x,
{8}6x-2[8:1],6x,5x-8[8:1],5x,4-1[8:1],4x,3x,3x,
{16}8x,1x,8,1,7x,2x,7,2,6x,3x,6,3,5x-8[8:1]*-2[8:1],4x,5,4,
{2}5x-1[8:1],{4}2/8x-4[8:1],2b/8b,
6x-1[8:1]/2x-5[8:1],6b/2b,{8}4x/7x-5[16:1],3-1[16:1],7,3,
4-6[16:1],1x,{32}8x/4,1x,{16}2xh[16:1],,,{8}3/5-7[16:1],2x,{32}1x/5,2x,{16}3xh[16:1],,,{8}4/6-8[16:1],
3x,{32}2x/6,3x,{16}4xh[16:1],,,{8}5/7-1[16:1],4x,{32}3x/7,4x,{16}5xh[16:1],,,{8}4x/6x-8[16:1],
3x,{32}2x/6,3x,{16}4xh[16:1],,,{8}3/5-7[16:1],2x,{32}1x/5,2x,{16}3xh[16:1],,,{4}7x-4[8:1]/3x-8[8:1],
7b/3b,{8}1x/6x-8[16:1],2-4[16:1],6,2,
1-7[16:1],4x,{32}5x/1,4x,{16}3xh[16:1],,,{8}2/8-6[16:1],3x,{32}4x/8,3x,{16}2xh[16:1],,,{8}1/7-5[16:1],
2x,{32}3x/7,2x,{16}1xh[16:1],,,{8}8/6-4[16:1],1x,{32}2x/6,1x,{16}8xh[16:1],,,{8}1x/7x-5[16:1],
2x,{32}3x/7,2x,{16}1xh[16:1],,,{8}2/8-6[16:1],3x,{32}4x/8,3x,{16}2xh[16:1],,,{4}5-8[8:1]/1-4[8:1],
1b/5b,{8}7-4[8:1],4,7pp4[1:1],3,
{4}2h[8:1],2h[8:1],3h[8:1],4xpp1[1:1],
3h[8:1],3h[8:1],2h[8:1],1xqq6[4:3]*qq6[4:3],
2h[8:1],2h[8:1],3h[8:1],4,
3-8[8:1]/7-4[8:1],3b/7b,{8}6x/1x-3[16:1],5,{4}1/6h[8:1],
{16}4x,5x,4,5,3x,6x,3,6,2x,7x,2,7,1x,8x,1,8,
2x,7x,2,7,3x,6x,3,6,4x,5x,4,5,3x,6x,3,6,
{8}2x/7x,7h[8:1]/2h[8:1],,2/6,5x/1x,2x-5[8:1]/6x-1[8:1],3x/7x,Cf/2bq5[1:2]/6bq1[1:2],
E
&lv_6=14
&des_6=布丁bot
&inote_6=(180)
{16},,,,
,,,,
,,,,
,,,,
{16}4/3h[8:1],,,,
3h[8:1],,,,
3h[8:1],,,,
3h[8:1],,,,
{16}5/7h[8:1],,,,
7h[8:1],,,,
7h[8:1],,,,
7h[8:1],,,,
{16}8/1s5<8z4[1:1],,,,
,,,,
,,,,
,,,,
{16}Cf,,,,
,,,,
E3,E7,E4,E6,
C,,,,
{16}3/4,,3,,
4/5,,5,,
3/4<7[8:1],,,,
3,,,,
{16}6/5,,6,,
5/4,,4,,
6/5>2[8:1],,,,
6,,,,
{16}3,4,3,5,
4,6,,,
7,5,6,4,
5,3,,,
{16}3-8[8:1],,,,
4-7[8:1],,,,
5-2[8:1],,,,
6h[4:1],,,,
{16}1b<6[8:1]*v4[8:1],,,,
1,,,,
5-7[8:1],,2>4[8:1],,
5,,2,,
{16}8,,8,,
8/5-3[8:1],,8,,
8/5-1[8:1],,8,,
8,,,,
{16}2>3-5[8:1]/7v4[8:1],,,,
2/7,,,,
6-8[8:1],,5>3[8:1],,
6,,5,,
{16},,2,,
2/1<8-6>4[4:1],,2,,
2,,2,,
2,,,,
{16}8b>3[8:1]*v5[8:1],,,,
8,,,,
4-2[8:1],,7<5[8:1],,
4,,7,,
{16}1,,1,,
1/4-6[8:1],,1,,
1/4-8[8:1],,1,,
1,,,,
{16}7<6-4[8:1]/2v5[8:1],,,,
7/2,,,,
3-1[8:1],,4<6[8:1],,
3,,4,,
{16},,7,,
7/8>1-3<5[4:1],,7,,
7,,7,,
7,,,,
{16}8b-4[8:1]/3b-8[8:1],,,,
8/3,,,,
7,,5,,
6,,6,,
{16}5-1[8:1],,7-4[8:1],,
5,,7,,
2,,3,,
3/4,,,,
{16}1b-5[8:1]/6b-1[8:1],,,,
1/6,,,,
2,,2,,
4,,3,,
{16}4-8[8:1],,2-5[8:1],,
4,,2,,
7,,6,5,
6,,7/4,,
{16}8b<1b[4:5],,,,
E1,,,,
E2,,,,
E3,,,,
{16}E4,,,,
E5,,,,
E6,,,,
7h[4:1],,,,
{16}5,6,5,6,
4,5,3,,
2,4,3,5,
4,6,5,,
{16}7-4[8:1],,,,
8-3[8:1]*-4[8:1],,,,
8,,,,
2xpp5pp8<1[4:15],,4,,
{16}Cf,,,,
,,,,
,,,,
,,,,
{16},,,,
,,,,
,,,,
,,,,
{16},,,,
,,,,
,,,,
,,,,
{16},,,,
,,,,
,,,,
,,,,
{16}E7,,,,
E6,,,,
E5,,,,
E4,,,,
{16}E3,,,,
E8/B7,,,,
E2/B2,,,,
,,,,
{16}E3,,,,
E4,,,,
E5,,,,
E6,,,,
{16}E7,,,,
C,,,,
E1h[4:1],,,,
,,,,
{16}4h[2:3]/3-1[8:1],,,,
,,,,
5-3[8:1],,,,
,,,,
{16}1>3[8:1],,,,
,,,,
5>3[8:1],,,,
,,,,
{16}2h[2:3]/1<7[8:1],,,,
,,,,
4>2[8:1],,,,
,,,,
{16}1-7[8:1],,,,
,,,,
3-1[8:1],,,,
,,,,
{16}5>2[2:1],,,,
E8,,,,
E7,,,,
E6,,,,
{16}4<7[2:1],,,,
E1,,,,
E2,,,,
,,,,
{16}7,,,,
5,,,,
4,,,,
3h[1:1],,,,
{16},,,,
6,,,,
8,,,,
2,,,,
{16}5b<4[2:3],,,,
3,,,,
,,,,
4,,,,
{16},,,,
5,,,,
,,,,
6,,6,5,
{16}4>5[2:3],,,,
6,,,,
,,,,
5,,,,
{16},,,,
4,,,,
,,,,
3,,,,
{16}5<4[2:3],,,,
3,,,,
,,,,
5,,,,
{16},,,,
6,,,,
,,,,
{24}7,,,6,3,5,
{16}4>5[2:3],,,,
6,,,,
,,,,
4,,,,
{16},,,,
2,,,,
,,,,
1,,,,
{16}4b,,4,,
3,,5h[4:1],,
4h[8:1],,,,
6,,,,
{16}7h[8:1]/5h[8:1],,,,
5h[8:1]/7h[8:1],,,,
5,,6,,
5b>2[8:1],,,,
{16}8b<5[8:1],,,,
1h[8:1],,,,
1h[8:1],,,,
1h[8:1]/4-8[8:1],,,,
{16}3-1[8:1],,,,
5-7[8:1],,,,
4-8[8:1],,,,
4b,,,,
{16}7bh[4:1]/5bh[4:1],,,,
,,2,5,
4bh[4:1]/3bh[4:1],,,,
,,6,5,
{16}4bh[4:1]/7bh[4:1],,,,
,,2,7,
1bh[4:1]/8bh[4:1],,,,
,,2,1,
{16}2b-5[8:1],,2,,
8b-4[8:1],,8,,
1b-5[8:1],,1,,
7b-4[8:1],,7,,
{16}3x>5[2:1],,,,
,,8xp4[8:1],,
,,,,
D5f/A5/A4,,,,
{16}6/1-6[8:1],,,,
1/5h[4:1],,,,
8-3[8:1],,4-8[8:1],,
8,,4,,
{16}1-5[8:1],,,,
1/4h[4:1],,,,
6-3[8:1],,2-5[8:1],,
6,,2,,
{16}7-4[8:1],,,,
7/5h[4:1],,,,
1-6[8:1],,4-8[8:1],,
1,,4,,
{16}5w1[8:1],,,,
5,,,,
4/7h[8:1],,3,,
5/2h[8:1],,6,,
{16}3/8-3[8:1],,,,
8/4h[4:1],,,,
1-6[8:1],,5-1[8:1],,
1,,5,,
{16}8-4[8:1],,,,
8/5h[4:1],,,,
3-6[8:1],,7-4[8:1],,
3,,7,,
{16}1h[4:1],,,,
5-2[8:1],,1,,
5,,,,
4-8[8:1],,8,,
{16}4w8[8:1],,,,
4,,,,
5/2h[8:1],,6,,
4/7h[8:1],,3,,
{16}2bx-5[8:1]*-6[8:1],,,,
2,,,,
7,5,7,5,
6,4,5,3,
{16}4h[8:1]/2h[8:1],,,,
4h[8:1]/2h[8:1],,,,
1-5[8:1]/4-8[8:1],,,,
4/1,,,,
{16}7-4[8:1]*-3[8:1],,,,
7,,,,
2,4,2,4,
3,5,4,6,
{16}5h[8:1]/7h[8:1],,,,
5h[8:1]/7h[8:1],,,,
8-4[8:1]/5>2[8:1],,,,
8/5<8[8:1],,,,
{16}1b-6[8:1],,,,
5h[4:1],,,,
2,4,3,5,
4,6,5,7,
{16}7bx-4[8:1],,,,
1h[4:1],,,,
5,1,6,2,
7,3,8,4,
{16}1b-5[8:1],,,,
4-8[8:1],,3,,
4bx,,,,
7-3[8:1],,8,,
{16}7/1b-4[8:1]*-6[8:1],,,,
1b,,,,
E7/B6,,B2/E3,,
D7/A6,,D3/A2,,
{16}8-6[8:1],,,,
2-5[8:1],,,,
2,,6,,
4>1[8:1]/8<5[8:1],,,,
{16}4bxv7[8:1]/8bxv3[8:1],,,,
4bx<2[4:1],,,,
4bx/6bxh[4:1],,,,
,,,,
{16}6/2-5[8:1],,,,
1-6[8:1],,,,
8-3[8:1],,,,
7-4[8:1],,,,
{16}2<7[8:1],,,,
2/5h[4:1],,,,
6,,,,
4,5,3,4,
{16}1-3[8:1],,,,
7-4[8:1],,,,
7,,3,,
5<8[8:1]/1>4[8:1],,,,
{16}5bxv2[8:1]/1bxv6[8:1],,,,
5bx>7[4:1],,,,
5bx/3bxh[4:1],,,,
,,,,
{16}3/7-4[8:1],,,,
8-3[8:1],,,,
1-6[8:1],,,,
2-5[8:1],,,,
{16}7>2[8:1],,,,
7/4h[4:1],,,,
3h[4:1],,,1,
1,,2/8,,
{16}7-5[8:1]/5-1[8:1],,,,
7/5,,,,
2-6[8:1],,5,5,
2,,8,,
{24}8x/5x,4x/7x,3x/6x,2x/5x,,,
2x/5x,3x/6x,4x/7x,5x/8x,,,
8x/5x,4x/7x,3x/6x,2x/5x,,,
{16}1h[4:1],,,,
{16}7-4[8:1],,,,
8-3[8:1],,,,
1-6[8:1],,,,
2,,,,
{16}3v8[8:1]/7-4[8:1],,,,
3/7,,,,
1h[4:1],,,,
8,,8,,
{16}2-4[8:1]/4-8[8:1],,,,
2/4,,,,
7-3[8:1],,4,4,
7,,1,,
{24}1bx/4bx,5x/2x,6x/3x,7x/4x,,,
4bx/7bx,6x/3x,5x/2x,4x/1x,,,
1bx/4bx,5x/2x,6x/3x,7x/4x,,,
{16}8bxh[4:1],,,,
{16}2-5[8:1],,,,
1-6[8:1],,,,
8-3[8:1],,,,
7,,,,
{16}6v1[8:1]/2-5[8:1],,,,
6/2,,,,
8h[8:1],,5,6,
4/3,,3/4,,
{16}1b<6[8:1]*v4[8:1],,,,
1,,,,
5-7[8:1],,2>4[8:1],,
5,,2,,
{16}8,,8,,
8/5-3[8:1],,8,,
8/5-1[8:1],,8,,
8,,,,
{16}7h[8:1],,5,,
7h[8:1],,8,,
7h[8:1],,5,,
7h[8:1],,8,,
{16}6h[8:1]/5h[8:1],,,,
3h[8:1]/2h[8:1],,,,
6h[8:1]/5h[8:1],,,,
3h[8:1]/2h[8:1],,,,
{16}8b>3[8:1]*v5[8:1],,,,
8,,,,
4-2[8:1],,7<5[8:1],,
4,,7,,
{16}1,,1,,
1/4-6[8:1],,1,,
1/4-8[8:1],,1,,
1,,,,
{16}2h[8:1],,4,,
2h[8:1],,1,,
2h[8:1],,4,,
2h[8:1],,1,,
{16}3h[8:1]/4h[8:1],,,,
6h[8:1]/7h[8:1],,,,
3h[8:1]/4h[8:1],,,,
6h[8:1]/7h[8:1],,,,
{16}5>6[0.3333##2],,,,
,,E7,,
,,E8,,
,,E1,,
{16},,E2,,
,,E3,,
,,E4,,
,,E5,,
{16}6xh[8:15],,5,,
,,5,,
,,5,,
,,5,,
{16},,5,,
,,5,,
,,5,,
,,5,,
{16}3b>6[2:1],,,,
4,,,,
4,,,,
4,,,,
{16}5b<2[2:1],,,,
4,,,,
4,,,,
3,,,,
{16}2,1,3,8,
4,7,5,6,
{24}2,3,4,8,7,6,
{16}5/4,,,,
{16}1h[8:1]/8h[8:1],,,,
,,1h[8:1],,
8h[16:1],,1h[16:1],,
8h[8:1],,1h,,
{8}
