&title=その群青が愛しかったようだった
&artist=n-buna feat.ヤギヌマカナ
&first=0
&des=そのみかんが愛しかったようだった
&des_4=Citrus*
&des_5=そのみかんが愛しかったようだった
&clock_count=4
&lv_4=9+
&lv_5=13
&inote_4=(220){4},,,,,,,,{2}4/5,
{4}3,3,
{1}2-5[4:3],
{4},7,6,5,
{2}4/3,6/5,
{1}5/4>1[4:3],
{2}B8,B7,
{4}B6,B5,{2}B4,
{4}B3,B4,{2}B5,
{4}5b/4b,3,2,1h[4:1],
{1}8<5[8:3],
{4}5/4,6,7,8h[4:1],
{1}1>4[8:3],
E8/B7/B8,
{4}B3/E4/B4,,,4/5,
{1}6h[2:1]/3h[2:1],
7h[2:1]/2h[2:1],
{4}8b/1b,7,6,5h[4:1],
{1}4-1[8:3],
{4}8/1,2,3,4h[4:1],
{1}5-8[8:3],
{2}8/1,C,
5/4,C,
{1}3q6[4:3],
8p5[4:3],
{2}4h[2:1],6,
7h[2:1],1,
{1}2q4[4:3],
C,
{2}5h[2:1],3,
2h[2:1],8,
{1}7p5[4:3],
C,
{2}4h[2:1],5h[2:1],
3h[2:1],6h[2:1],
{1}2p8[4:3],
C,
{2}5h[2:1],4h[2:1],
6h[2:1],3h[2:1],
{1}7q1[4:3],
C,
{4}1b/8b,1,{2}1h[2:1],
{4}8,8,{2}8h[2:1],
{4}1,7,{2}2h[2:1],
{1}6-3[8:3],
{4}5b/4b,5,{2}5h[2:1],
{4}4,4,{2}4h[2:1],
8b<5[8:3],B4/B3,
1b>4[8:3],B6/B5,
{4}5h[2:1]/4h[4:1],,,3h[8:1]/6h[8:1],
,4h[4:1],5h[4:1],3h[4:1],
{2}6-1[4:1],2-5[4:1],
{1}8bw4[8:3],
{4}6x/2x,B3/B4,8h[4:1],1,
{2}1>4[4:1],{4}6b,6,
{2}6h[2:1],{4}B4/E5,3x,
2x,1x,8/1,8/1,
1h[2:1]/8<5[4:1],,,2,
3,4,{2}5/6,
4/3,4b/5bpp8[4:3],
{4},,,,7x/3x,
B6/B5,1h[4:1],8,
{2}8<5[4:1],{4}3b,3,
{2}3h[2:1],{4}B5/E5,6x,
7x,8x,1/8,1/8,
8h[2:1]/1>4[4:1],,,7,
6,5,{2}4/3-1[4:1],
{4}6-8[4:1],,,1bw5[8:3],
,,,4,
5,4,{2}3/6v1[4:1],
{8}2-5[4:1],,,,,8,,8bw4[8:3],
,,,,,,,,{1}Cf/E7/B7/B3/E3,
{4}5h[2:1],4,{2}3h[2:1],
6h[4:3],{4}3,2,
{1}1pp4[4:3],
5-8[8:3],
{4}4h[2:1],8x,{2}7h[2:1],
3h[4:3],{4}7,6,
{1}5pp8[4:3],
4-1[8:3],
Cf,
5b/4b,
Cf,
{4}1/8h[1:1],2,3,4,
{1}5qq2[4:3],
1qq6[4:3],
{2}2q4[4:3],C,
7p5[4:3],C,
{1}Ch[4:3],
8b,
8-4[8:17],
{4},,,,,,,3,
2,1,{2}8/1h[2:1],
{4}8b-4[4:1],,,1,
2,3,{2}4-1[4:1],
5<8[4:1],Cf,
{4},,,,2/7h[2:1],
2,{2}2>5[4:1],
{4}8,8,{2}8-4[4:1],
2h[2:1],B6/B5,
{4}5x,6,7,8/1,
{1}8h[2:1]/1-5[4:1],
{4}8,7,{2}6v1[4:1],
{4}4p2[4:3],,,Cf,
,,,8/1,
1/8h[1:1],2,3,4,
5-2[4:1],,,8/1,
8/1h[2:1],7,6,5h[2:1],
2,3h[2:1],,B8,
B7,B6,,,B2,
B3,{2}B4,
{1}Cf,
4/5q7[4:3],
4p2[4:3],
8<5[8:3],
1bq3[4:3],
5<8[8:3],
{4}B4,B3,{2}B2,
{4}B8,B7,{2}B6,
{1}Cf/B7/E7/B6/B3/B2/E3,
4b/5b,
B6/E7/B2/E3/Cf,
8b/1b,
{4}5b/4b,4,{2}4,
{4}5b/4b,5,5/4,4,
{2}5/4h[2:1],{4}5,6,
{1}7p5[8:3],
E
&inote_5=(220){4},{8},,,,,,,,,,4,
5,3,6,
{4}2>5[4:1],5<8[4:1],8>3[4:1],3>4[1:1],
{1}6h[1:1],
{8},,6,5,{4}7,{8}3,4,
2,5,{4}1<6[4:1],6>3[4:1],3<1[4:3],
{1}8h[4:3],
{8}7,7,1,1,6,6,2,2,
5,3,{4}4-7[8:1],1,{8}8,8,
{4}8-3[8:1],5,{8}6,6,6,4,
{4}8bp4[8:1],B1/E2,3-7[8:1],5V71[4:1],
5,2-4[8:1],{8}2,1,1,1,
{4}4p8[8:1],E6/B5,7-3[8:1],1V35[4:1],
1,6-8[8:1],6,{8}5,5,
{4}8-4[8:1],{8}3,3,{4}2-5[8:1],6V82[4:1],
6,{8}3,3,{4}4-8[8:1],{8}7,6,
{4}5<7[8:1],{8}2,3,{4}4>2[8:1],{8}8,8,
{4}7-4[8:1],1,2-5[8:1],6,
8b<5[8:1],E5/B4,2-6[8:1],4q8[4:1],
4,1>3[8:1],{8}1,8,8,8,
{4}4>1[8:1],E1/B8,6-2[8:1],8q4[4:1],
8,5<7[8:1],5,{8}4,4,
{4}8p4[8:1],{8}4,3,{4}2-6[8:1],4V68[4:1],
4,{8}3,2,{4}1>4[8:1],{8}8,7,
{4}6<8[8:1],{8}4,3,{4}2>4[8:1],{8}1,1,
{4}1-5[8:1],4,3-8[8:1],{8}7,6,
{4}5h[4:1],{8}1,1,{4}1>4[8:1],{8}5,6,
{4}7-3[8:1],3,2v4[8:1],6,
{2}7<2[2:1],B5/B4,
1>5[2:1],{4}B5/B6,{8}8,7,
{4}6h[4:1],{8}4,5,3,3,6,6,
2,7,1,8p4[8:1],,B1/B2,,3>6[8:5],
,,,,{2}B8/B1,
5<1[2:1],{4}B1/B2,{8}4,3,
{4}2h[4:1],{8}8,8,8<5[8:1],1,2,3,
{4}4-8[8:1],8,7v1[8:1],3,
{2}2>7[2:1],B5/B4,
8<4[2:1],{4}B4/B3,{8}1,2,
{4}3h[4:1],{8}5,4,6,6,3,3,
7,2,6,1,5,8z4[16:3],,7<2[8:5],
,,,,{2}B4/B5,
1>5[2:1],{4}B5/B6,{8}8,7,
{4}6b/8h[4:1],{8}5,1/5h[8:3],,,{4}E3/B3/E4,
{8}6,4,7,5-1[8:1],,8,7,6,
5,1,6,2,7,3,{4}8-4[8:1],
4<8[2:1],3,2,{8}1,2,
{4}3b/1h[4:1],{8}4,8/4h[4:1],,7,3,6,
2,5,1,1h[8:3],,,4-8[8:1],4,
{4}2b,{8}3,4>1[8:1],,,5<8[8:1],5,
{4}1b,{8}2,2>5[8:1],,8,7,6w2[8:1],
,,,,{4}3/1h[4:1],{8}2,8h[8:3],
,,1,7,2,8,1,6,
{4}8<5[4:1],5>2[4:1],2<7[4:1],7>5[2:1],
Cfh[2:1],,,8-4[8:1],
3b>1[8:1],E7/B6,8<6[8:1],B2/E3,
{2}4bw8[8:1],{4}6x/2x-6[8:1],{8}8,8-5[8:1],
,4,{4}4V27[4:1],7-3[8:1],6,
5-1[8:1],4,{8}3,3-7[8:1],,8bp6[8:3],
,,,,,,{4}5>1[4:1],
1<5[4:1],5V71[4:1],1V35[4:1],C,
8-4[8:1],3-8[8:1],5-1[8:1],2bq4[2:1],
,,,5-1[8:1],
2b>4[8:1],B7/E7,5<7[8:1],E3/B3,
{2}1bw5[8:1],{4}3x/7x-3[8:1],{8}1,1-4[8:1],
,5,{4}5V72[4:1],2-6[8:1],3,
4-8[8:1],5,{8}6,6-2[8:1],,1bq3[8:3],
,,,,{4}4-8[8:1],2-5[8:1],
7-3[8:1],4x-1[8:1],{2}5<3[2:1],
{4}4b-8[8:3],,,4w8[8:3],
{8},,,,,,2,6,
3,5,{4}1>4[8:1],{2}6-2[8:1],
{4}4h[4:1],{8}8,8-4[8:1],,,,B2f/E3/E2,
,5x,5x,4,3,2-8[8:1],,5,
6,7-3[8:1],,,,,4,4,
{4}5h[4:1],B4,3h[4:1],B5,
6h[4:1],B1,2h[4:1],B8,
7xp5[4:3],E2,E3,E4,
4x-1[8:3],{8},,,,8,8,
{4}1h[4:1],B8,7h[4:1],B1,
3h[4:1],B5,6h[4:1],B4,
3xp1[4:3],E6,E7,E8,
8xqq5[4:3],1,2,3,
{1}4bw8[8:3],
5bw1[8:3],
{4}2b-4[8:1],B7/E7,5-7[8:1],B3/E3,
1-5[8:1],5>1[2:1],6,7,
8b-4[8:1],{8}1,1V35[4:1],,,{4}6-8[8:1],
6,{8}5,5V31[16:3],,,{4}8-6[8:1],
{8}8,1,{4}2-5[8:1],{2}8-4[8:1],
{4}2>5[4:1],5<8[4:1],8>3[4:1],3>6[4:3],
{1}Ch[4:3],
8b,
8-4[8:17],
{4},,,,,,,3,
2,1,{8}8/1,8/1>4[8:1],,5b,
,,{4}6,7,8-4[8:1],
1-5[8:1],2-6[8:1],3-7[8:1],4-8[8:1],
1-3[8:1],1,5<3[4:3],Cf,
,,,4-8[8:1],
7b-5[8:1],B2/E3,4-2[8:1],E7/B6,
{2}8bw4[8:1],{4}2x/6x-2[8:1],{8}4,4-1[8:1],
,8,{4}8p3[4:1],3p5[4:1],2,
1>4[8:1],5,{8}6,6-2[8:1],,4bq5[8:3],
,,,,{4}8-4[8:1],3-8[8:1],
5-1[8:1],2-6[8:1],{2}8<2[2:1],
{4}1b-5[8:3],,,1w5[8:3],
{8},,,,,,4,5,
{4}6/4h[4:1],B7/B8,5h[4:1],B1/B2,
3-6[8:1],{8},,,,8,1,
{4}2/8h[4:1],B3/B4,1h[4:1],6-2[8:1],
1-4[8:1],{8},,,,6,5,
{4}6/4b-2[8:1],8,1b-5[8:1],2,
3h[4:1],{8}5,5-1[8:1],,,,E7/B7/B3/E3/Cf,
,,{4}4x-8[8:1],7V51[4:1],2-4[8:1],
2,8-6[8:1],{8}8,4,4,5,
{4}3-8[8:1],5-1[8:1],2V48[4:1],7-5[8:1],
7,1-3[8:1],1,{8}6,6,
{4}4p8[8:1],{8}5,5V71[4:1],,,{4}2-4[8:1],
2,{8}1,1V75[4:1],,,{4}4-2[8:1],
{8}4,5,{4}6-8[8:1],{2}1-5[8:1],
{4}8-4[8:1],1,2-6[8:1],1,
{1}8bw4[8:3],
4w8[8:3],
1b-5[8:3],
6-1[8:3],
{4}2b-5[8:1],{8}8,8h[8:3],,,{4}4>1[8:1],
B8/B7,5<8[8:1],B1/B2,4-8[8:1],
{2}5b,{4}1,1,
{1}8/1,
E
