&title=Aether Crest: Astral
&artist=void (Mournfinale) × 水野健治
&first=1.4
&lv_4=13+
&des_4=knrs (kanarisu) × 佳奈栗鼠
&demo_seek=117.07
&demo_len=23.96
&inote_4=
(180){4},,,,{8}1/8,
{4},{8}1/7p4[0.8333##1],,,,8,
{4}1,2,3,1,
{8}8/1,{4},{8}8/2q5[0.8333##1],,,,1,
{4}8,7,6,8,
7h[4:3],{8}8,8,{2}1,
{8}2h[4:3],{4},{8}1,{2}8,
{4}6h[4:3],{8}7,7,{2}8,
{8}2h[4:3],{4},{8}1,{2}8,
5<1[0.6667##0.6667],1>5[0.6667##0.6667],
5-7[0.6667##0.3333],2,
4>8[0.6667##0.6667],{4}7,6,
{2}5-1[0.6667##0.3333],2x,
{4}6h[4:1],5,3h[4:1],4,
7h[4:1],6,2h[4:1],3,
{2}4/8-6[0.6667##0.3333],3/8-2[0.6667##0.3333],
4/8-4[0.6667##0.3333],2,
7h[2:1],3h[2:1],
{4}6h[4:1],4h[4:1],{2}5h[2:1],
{1}Ch[4:7],
,{4}8bx/1bx,
{8}7,1-5[8:5],{4}7,8,
8,8,{16}7,5,{8}7,{16}4,6,{8}4,
{4}5b,{8}2,7-4[8:5],{4}2,1,
8,1,{16}2,8,{8}2,{16}7,1,{8}7,
{4}8b,{8}6,3-8[8:5],{4}6,5,
4,5,{16}6,4,{8}6,{16}3,5,{8}3,
{4}4b,{8}3,6-1[8:1],{4}3,4,
{8}5/6,6,4/3,3,6x/3x,5x/4x,{4}Cf,
7-4[0.6667##0.1667],8-3[0.6667##0.1667],{2},{4}1<6[0.6667##0.1667],
2>5[0.6667##0.1667],{2},{4}8q4[0.6667##0.1667],
8p4[0.6667##0.1667],{2},{4}2v4[0.6667##0.1667],
1v7[0.6667##0.1667],{2},{8}6h[4:1],
5,4,5h[4:1],4,3,{16}6x,3x,{8}6x,
7h[4:1],8,1,8h[4:1],1,2,{16}3x,1x,{8}3x,
6h[8:1],5h[8:1],4h[8:1],3h[8:1],4h[8:1],5h[8:1],{4}6qq2[4:3],
7,8,1,E7/B6/E6/A6f,
4/8h[4:1],4,5/1h[4:1],{8}5,2h[4:1],
,6,{4}1-7[8:1],{2}1-3[8:1],
{16}6x,5x,6x,5x,{4}6p1[8:3],{8},1<4[8:3],,,,,,2,
{4},{8}3x,3xh[16:1],
{4}4/8h[4:1],4,3/7h[4:1],{8}3,6h[4:1],
,2,{4}8-6[8:1],{2}8-2[8:1],
{16}3x,4x,3x,4x,{4}3x,6h[4:1],2,
{8}7/8,8/7,{16}1,6,{8}1,{16}7,8,{8}7,{4}7x/8bx,
{16}1h[16:3],{8},{16}8,{8},7h[8:1],{4}2,{16}7x,6x,{8}5xh[4:3],
,{16}E8,E1,E2,E3,E4,E5,E6,E7,{8},8bx,1bxh[8:3],
,,,{16}1x,2x,{8}3xh[8:1],E1,E8,E7,
{16}6,4,{8}6,{16}3,5,{8}3,7h,5,3h,5,
{16}8h[16:3],{8},{16}7,{8},1h[8:1],{16}2,{8},{16}4h[16:3],{8},3h[8:3],
{2},{4}1/6,3/8,
{16}2,1,2,1,{4}2,{16}7,8,7,8,{4}7,
{16}1,8,1,8,{8}2x,7x,{2}8-5[8:1]/1-4[8:1],
{1}1bxw5[0.6667##4.3333],
,,,{4}6/5,
5/4,3/4,{8}4/5,{24}1,2,3,
{8},5x,5x,{24}8,7,6x,{8},{24}1,8,7x,{4},{8}5/6,
6,3/4,3,{16}8x,7x,6x,5x,1x,2x,3x,4x,
{8}6/5,5/6,4/3,3/4,4xh[16:1]/6xh[16:1],4xh[16:1]/6xh[16:1],{4}5bx/3bx,
{1}Ch[2:3],
{4},,,1b>5[4:1],
5<1[4:1],1>5[4:1],5<1[4:1],1V35[4:1],
5V71[4:1],1V35[4:1],{2}5,
{4}5/6,{16}5x,6x,,6x,,5x,,6x,,6x,{8}5x,
{4}3/4,{16}3x,4x,,4x,{2}3xh[4:1],
{4}8b<4[4:1],4>8[4:1],8<4[4:1],4>8[4:1],
8V64[4:1],4V28[4:1],8V64[4:1],4,
,{16}3x,4x,3x,4x,{8}2x,2x,{12}5x,5x,5x,
{4}4xqq4[4:1],4xpp4[8:3],{2},{16}7,
6,{8}5,{16}7,6,{8}5,{16}2,3,{8}4,{16}2,3,{8}4,
{16}8,7,{8}6,{16}8,7,{8}6,{2}1bx,
3-8[0.6667##0.1667]/7-4[0.6667##0.1667],Cf,
6-1[0.6667##0.1667]/2-5[0.6667##0.1667],Cf,
{16}5x,4,5,4,6x,3,{8}6,{16}2,3,{8}4,{16}2,3,{8}4,
{16}7,6,{8}5,{16}7,6,{8}5,{2}1bx,
8h[8:3],{4}2,7,
{2}1-4[0.6667##0.1667]/5-8[0.6667##0.1667],Cf/E1/E5,
4>8[0.6667##0.6667],8<4[0.6667##0.6667],
4-2[0.6667##0.3333],7,
5<1[0.6667##0.6667],{4}2,3,
{2}4-8[0.6667##0.3333],7x,
{1}1bx-5[0.6667##1.6667],
{2}B2/E2/A2/E3,E7/B7/B6/A7,
4h[2:1],{8}6h[8:3],{4},{16}2x,3x,
{1}4xh[2:1],
{2}4/8-4b[2.3333##0.1667],3h[8:3],
2h[4:1]/6h[4:1],{4}1/5,8bx,
{8}1b/6b,{4},{8}8b/3b,,5,{4}4/5,
{16}6/3,{8},{16}7/2,{8},1h[8:1]/8h[8:1],,{16}1x,8x,{4}1bx,
{16}1,2,3,4,{8},{16}8,7,6,5,{8},{16}4,5,4,5,
{4}2-4[8:1],1-5[8:1],{2}8-6[8:1],
{16}3,4,{8}3,{16}6,5,{8}6,{16}4,5,{8}4,{16}6,3,{8}6,
8xh[8:1],1x,3xh[8:1],8x,{4}6xh[4:1],2b,
{16}2,1,{8}2,{16}7,8,{8}7,{16}1,8,{8}1,{16}7,2,{8}7,
{16}1,2,{8}3,{16}8,7,{8}6,4xh[8:1],5xh[8:1],{4}Cf,
{16}2,1x,2,1,{8},{16}8x,3,8,3,{8},{4}2-5[8:1],
7-4[8:1],1-5[8:1],{2}8-4[8:1],
{16}1,2,{8}3,{16}8,7,{8}6,{16}2,1,{8}2,{16}7,8,{8}7,
{12}5x,5x,5x,4x,4x,4x,6x,6x,6x,3bx,{6},{16}6,
5,{8}6,{16}3,4,{8}3,{16}6,5,{8}7,{16}3,4,{8}2,
{16}5,3,{8}8,{16}4,6,{8}1,{2}7-3[8:1],
{16}2,2,{8}2,{16}8,8,{8}8,{16}1,1,{8}1,{16}7,7,{8}7,
{24}1x,2x,3x,4x,8x,7x,6x,5x,1x,2x,3x,4x,{8}8x-2b[8:1],7x,{4},{32}8bx/1bx,
7bx/2bx,6bx/3bx,4bx/5bx<4[0.5417##1.3333],{8},,,,,,,,,,,,,,,{2}4h[2:1],
{8}6h[8:3],{4},{8}3h[2:1],
,,,7h[4:1],{4},2b,
{8}1h[16:1],8h[16:1],2h[16:1],7h[16:1],1h[16:1],8h[16:1],2h[16:1],{24}8,7,6,
{8}1h[16:1],8h[16:1],2h[16:1],{24}8,7,6,{8}1x,{24}8,7,6,{4}Cf,
{16}1,8,1,8,1,8,1,8,{24}1x,2x,3x,8x,7x,6x,2x,3x,4x,7x,6x,5x,
{8}3x-1[0.6667##0.1667],1x-7[0.6667##0.1667],7x-5[0.6667##0.1667],5x-3[0.6667##0.1667],{2},{1}6bx<4q5b[4:11],
{2},,,,,{32}E6,
E5,E4,E3,{8}2x<3[8:25],
E
