&title=PUPA (Endorfin. Remix)
&artist=モリモリあつし Remixed by Endorfin.
&first=-0.47
&des=HaySad
&lv_5=14
&des_5=HaySad
&inote_5=
(170){4},,,,{1}3-8-6-1-3[4:5],
{16},5,,,,,,,,,,,,,{8}5h[1:2]/1-6-8-3-1[8:15],
{1},,{4},{16},,{32}6,
7,{16}8<5[16:5],,,,,{4}2,
{32},,,,2,3,{16}4,,,6,5,6,3,4,3,7,5,6,2,
4,3,7,5,{8}6,{32}2,3,{16}4>1[8:3],,,,,{4}7,
{8},5,{16},,3,4,3,6,5,6,2,4,3,7,
5,6,2,4,{8}3,{32}6,7,{16}8h[8:3],{32},,,,,,,,1,2,{16}3,{32},,,,,,,,8,
7,{16}6<1-5>2[2:1],{4},,,{32}1,
8,7,6,5,4,3,2,1,8,7,6,{8}5/2bh[8:3],,,{4}7h[8:3],
{8},2b,{16},,,,,,,,,,1,2,
7,6,2,3,6,5,{8}4h[8:1],2h[8:1],4,2h[8:1],5,
2>4[4:1],6h[8:1],2,6h[8:1],,5/6h[8:1],,4,
6<8[4:1],3,{4}6/2h[8:1],2h[8:1],{8}3h[8:1],8,
4>1[4:1],7,4,6h[8:1],,6h[8:1],1,2,
{4}6h[8:1]/3V51[2:1],{8}3/7,8,{4}1-7-3[2:1],5,
5s1V75[1:1],5,{16},,,,,,,,,,,,,,3,
4,3,6,5,6,2,4,3,7,
5,6,2,4,{4}3h[4:1],{8}5,5,3h[4:1],6,
{16}6,4,5,4,{8}6h[8:1],3,4/6V82<6[4:3],3,4/6,4h[4:1],
{16},,,,4,3,{8}2h[8:1],,2,6/3-5-3[4:1],5,
3-1[8:1],6,{4}7h[4:1],{8}1,1>4[4:1],8,1,
{16},,6,7,{4}8-4[16:3],{8}8/1,2,3,7,
3h[8:3],6,,E8/B7/B8,,6/E3/B3/B2,,1/E6/B6/B5,
,7/E4/B4/B3,,3/4,4/5,6/5,{4}6/7>5[4:3],
7,{8}A6,D7/E7,,E8,{4}B8/B7,
6/5-1[8:1],5/4,{8}3,6/4,{16}7,4,{8}8,
4,4-1-6[2:1],,4,5,6-8-3[2:1],6,5,
4,3-1-6[2:1],3,4,{2}5bh[4:1],
{8},,,5/6-8-3[2:1],6,5,4,3-1-6[2:1],
3,4,5,6-8-3[2:1],6,5,4b,4b,
4b,,,1<6[4:1],2,3,4,5>2[4:1],
6,7,8,1<4[8:3],2,3,{4}4b,
{8},,,3h[8:1]/4q8[2:1],,3h[8:1],,3h[8:1],
,3h[8:1],,3h[8:1]/1p5[2:1],,2h[8:1],,1h[8:1],
,1h[8:1],,1h[8:1]/B3/E4/E3,,1h[8:1]/B6/B5/E6,,1h[8:1]/E5/B4/A4,
,8h[8:1]/B7/E8/B8,,2h[8:1]/B3/B4/E4,,B6/E6/A6,{16}D1,A1,D2,A2,
D3,A3,D4,A4,D5,A5,{8}7bxpp7q7[4:5],,,,,,,,1,
,,{4}2,
{32}2,3,4,5,6,7,8,1,{8}5b/2b-4[8:1],5,2-6[8:1],7,2-4[8:1],5,
2-8[8:1],7,2-6[8:1],5,2-4[8:1],7,2,{16}5,6,
{8}7-4[8:1],{16}4,3,{8}2/7-1[8:1],2,7-4[8:1],3,7-1[8:1],2,
7-3[8:1],2-5[8:1],7,2,1,{16}1,8,{8}7-4b[8:1],1-5b[8:1],
2/7,1b,{16},,8,7,{8}2/6-1[8:1],3,6/4-8[8:1],5,
4,5,6v1[8:1],2-5[8:1],6,2,{16}8,7,6/4,3,
{8}2-5[8:1],6,2,7,{4}7,3/8h[8:3],
{8}2,2,{16}2,8,3,7,4,6,5,6,{32}5,4,3,2,1,8,7,6,
5,4,3,2,{8}1b/5-7[8:1],,5,2-8[8:1],7,2-6[8:1],4,
2>4[8:1],7,2,7-5[8:1],1,7v4[8:1],8,7,
{16}8,1,{8}2-8[8:1],5,2-4[8:1],6,2-8[8:1],5<7[8:1],2-4[8:1],
5,2-8[8:1],6,2,{16}7,6,{8}5,{16}5x-1b[8:1],6,7/3,8/4,
{4}1b/5b,{8}8-5[8:1],5,8-3[8:1],3,8-6>5[8:1],5,
8-2>3[8:1],3,8,{16}5,6,7,8,1,2,{8}3,6/4h[2:1],
,6,{32},,,,6,7,{16}8h[16:5],{32},,,,,,,,1,2,{16}3,,,,,{8}4/5bw1[8:5],
,,,,,,,,,7-3>1[8:3],
,7,{4}1-5<7[8:3],
{8},7-3-1-5-7[4:3],,,{4}4h[8:1],4h[8:1],
{8}2h[8:1],,,1>3-7[8:3],,,{4}7<5-1[8:3],
{8},1>3-7<5-1[4:3],,,{2}E8h[2:1]/B8h[2:1]/A8h[2:1],
{8},,,1/7<4[4:1],,,{4}1-6-8-3-1[1:1],
{8},6h[1:1],{4},,,{16},,{32}1,
2,3,4,5,6,7,8,{8}1bh[4:1]/5b<7-3[8:3],,5,{4}3>1-5[8:3],
{8}4,5s1b[4:1],,,,,,7b/3b,
,,,7,8,8pp4[2:1],,6/8,
,B7/A7,{4}B6/A6,3h[4:1],{8}5,5,
{4}3v8[16:3],3,{8}7,7<4[16:3],2,7,
,1,{4}6h[4:1]/1h[4:1],{8},,1/6,2/5,
{4}4b/3b,{8}1/8,1>5[4:1],,5<1[4:1],,1-3-5[4:1],
,5-7-1[4:1],,1>1-3-5-7-1[8:11],,,,,{1}7xh[1:1],
{8},,1h[4:1],7,7h[4:1],3,3v8>1-4[2:1],6,
{2}6h[4:1],{8}6,6h[4:1],,2-5[8:1],
,2,{4}1,{8}8,7,,7-4[8:1],
,7,{4}8h[4:1],{8}5,6h[4:1],,3,
{4}2-5[8:1],8/2,8h[4:1],{8}3,4,
,4q4-8[8:9]/6p6-2[8:9],,4/6,,,,,,,,,,,,,7/1,
7/1,,8/7,,6/1,{4}8h[4:1]/7h[4:1],
{32},,,,,,,,1,2,3,4,5,6,7,8,1,2,3,4,{8}8/5,{4}8z4[4:1],
{8}8,A2/D3/A3,,5,6,B3/E3,A3,1,
2,E6/B6/A6,B5,8,7<4[16:7],E2/B2,{4}B3/B4,
{8},,,2/1h[8:1],{4}3,{8}5/6h[8:1],4,
,3/2h[8:1],{4}4,{8}5/7h[8:1],4h[4:1],8,8h[4:1],
,2,,8-5[8:1],8,1-4[8:1],1,8-3[8:1],
8,1-6[8:1],1,8-4[8:1],8,1v6[8:1],1b,8b,
8b,,,7h[4:1]/8h[4:1],,,{4}6h[4:1]/5h[4:1],
{8},7h[4:1]/8h[1:1],,,,7,,7,
{32},,,,7,6,5,4,3,2,1,8,{8}7/3,3,3v8[8:1],4,4/3,
5,6v1[8:1],5,4/6,4,4-1[8:1],5,4/5h[4:1],
,,,1>5[4:1],,5<1[4:1],,1>4[4:1],
,4<7[4:1],,7>2[4:1],,5,4,3,
,3,2,2/3h[8:1],,2/3h[8:1],,4/3h[8:1],
,5/3h[8:1],,6/3h[8:1],,7/3h[8:1],,8/3h[8:1],
,4/1h[8:1],,5/8,8,5/7,7,4/8,
8/4>5[2:1],{32}8,7,6,5,{8}4,A3,{16},E2,,,{4}E1,
{32}8x,7x,6,5x,4x,3x,2x,1x,{4}8bx/4bxh[2:1],{32},,,,,,,,8,7,{16}6h[16:5],{32},,,,,,,,3,
2,{16}1h[16:5],,,,,{8}C,,,7/B4/E4/E5,
,2/E6/B5/A5,,8<5[4:1],,,{4}B3/B2/E3,
{8},1p1[4:1],,,A7/D8,{32},,,,,,,,8/1,7,{16}6,
{32},,,,2,3,{16}4,,,{8}7/5h[8:3],,7,{4}7h[8:3],
{8}4,4b,,,6/3h[8:3],,,6,
,7-4[8:1],,7/1,,,{4}2/4h[8:3],
{8},2-5[8:1],,,{4}8,{16}8,4,8,4,
8,7,6,5,{32}3/4h[8:3],2,1,8,,,,,,,,,{8}3,{16}5,3,5,3,
6,2,6,2,7,6,5/1,2,3,5,3,6,4,6,4,7,
5-2[8:1],7,4,8,{4}5,{16}8,7,6,5,1,2,3,4,
7,5,7,5,6,4,5,3,4,2,{8}1x/5x,{4}1bxpp1b[4:1]/5bxpp5b[4:1],
{8}5b/1b,{16},,,,7-4[8:1],8,{8}6,7,{16}1,2,3,4,
{8}5/8,{16}7,4,6,3,5,2,4-7[8:1],1,4,1,4,1,2,3,
4,5,8,7,6,5,3,4,{8}3h[16:1],{16}6,5,{8}6h[16:1],{16}2,4,
3,7,5,6,4,3,2,1,{8}4h[16:1]/8h[16:1],5h[16:1]/1h[16:1],2h[16:1]/6h[16:1],3h[16:1]/7h[16:1],
8h[16:1]/4h[16:1],1b/5pp8>1pp4[16:29],,,,,,,,,,,,,,,,,,8<6-1-5-2[4:5],
,,,,,,,,,,,,,,,1h[8:1],
,1h[8:1],,1h[8:1]/8h[8:1],
,1h[8:1]/8h[8:1],,2h[8:1]/7h[8:1],,6h[8:1]/3h[8:1],,5h[8:1]/4h[8:1],
,4/2,3,7/4,{16}5,6,5,6,3,4,3,4,
5/2,6,{8}7,8/5,5b-8[8:1]/8b-5[8:1],{16},5b/8b-3[16:3],,,,,,,{1}4bw8[4:5],
,E8/E7/E6/E4/E3/E2/B2/B3/B7/B6/Ch[8:9],
{8},,,7b/1b,{16},6b/4b,,,{8}2/5,{16}4,3,
5,2,{8}6h[4:1],{16},,4-7[8:1],3,{8}2,4/1,1,{16}1/8,2,
{8}3-8[8:1],3/5,6,7,{16}7,6,{8}5/3>7[4:1],2/4,3/1,
{16},,6x,5x,{8}4x/2bx-8[8:1],{16}3,4,2/5,6,{8}7-4[8:1],8,7,
{16},1,2,3,{8}6/4,6/4,{16}5,4,{8}5,{16}5/6<8[8:1],4,3,2,
{8}6,2-6[8:1],,2b/1b,,,{4}1h[4:1]/8qq8[8:3],
{8},1,{16}2,3,{8}4h[8:3],8,8,{4}8,
{32}8/4,1,2,3,4,5,6,7,{8}8b,8-6[8:1],{16}2,3,{8}8-2[8:1],{16}3,4,{8}8-6[8:1],
{16}3,4,{8}8-2[8:1],{16}4,5,{8}8,{16}3,4,5,6,7,8,1/5b,2/6,
{8}7b/3-8[8:1],6,{16}3/5,6,{8}7-5[8:1],{16}1,2,{8}7/3-1[8:1],{16},,3/4,5,
6,7,{8}8/1,6-8[8:1]/5-1[8:1],4/7,{4}6/5,{16}6b/2b,5,3,4,
{4}1b/5b,{16}6/4,7,{8}8-4[8:1],{16}4,3,{8}8/2-6[8:1],,2/8,
8,8,{16}8,5,8,5,8,4,8,3,7,2,8,1,
{8}7,1/8w4[8:1],8,8,,,2/1,1w5[8:1],
,1,,,,,7/3,{16}2,8,
2,8,1,7,1,6,{32}5/1h[1:1],4,3,2,,8,7,6,5,4,3,2,8,7,6,5,4,3,2,8,
7,6,5,4,3,2,8,7,6,5,4,3,2,8,,,{8}1/7,6/1,{4}1/5w1[8:1],
5,{8}7,8>3[4:1],,8,7,6,
6,{16}4,5,4,6,3,7,2,6,2,5,2,5,{8}2,
2h[4:1]/4h[4:1],{16},,,,3,5,3,5,4,6,4,6,5,7,
5,7,4,8,3,1,2,1,2,6,5,6,5,3,4,3,
{4}4b,{8}3/4,6/5,{16},8/7,,,2/1,,,1b-5[8:1]/5b-1[8:1],
,,{8}5b/1b,{16},,,,5,1,5,1,4,8,4,8,
{32}4,3,2,1,8,7,6,5,{4}8b/4bh[2:1],,8bh[8:3],
{8},3b>5[8:5],,,,,,,,,,8h[8:3],
,,{4}4h[8:3],
{8},6<5[8:5],,,,,,,,B2h[4:1],
,6h[8:3],,,{4}2h[8:3],
{8},8<4[2:1],,,,,,,,B2h[4:1],
,4h[8:3],,,{4}1h[8:3],
{8},5b,
E
