&title=Palescreen
&artist=WyvernP feat. Madol
&first=0.015
&des=Joy & FrOg
&lv_5=14+
&inote_5=(86.5){8},1xs5[1.0405##1.2971],{4},,,{8}3h[8:1],
5h[8:1],4h[8:1],6h[8:1],2h[8:1],8h[8:1],1h[8:1],7h[8:1],
3h[8:1],1h[8:1],5h[8:1],7h[8:1],{16}1>5[8:1],{8},{16}1,1/B8,B2,B6,B4,
{8}3h[8:1],5h[8:1],{16}4,7,2,5,1,6,3,8,{8}2h[8:1],{16}8,1,
{8}7-4[8:1],8,7/2>5[8:1],1,{16}2/8z4[8:1],{8},{16}1,{4}1h[8:1],
6h[8:1]/4h[8:1],{8}5/3h[8:1],2h[8:1],1h[8:1],8h[8:1],7h[8:1],5h[8:1],
{32}3,4,2,5,1,6,8,7,{8}6h[16:1]/1h[16:1],2h[8:1],8h[8:1],6h[8:1],{4}4h[8:1],
{32}1b,8,7,6,5v7[16:1]/1v3[16:1],4,3,2,{16}1/5,8/4,{8}5/1,{32}8b,1,2,3,4v2[16:1]/8v6[16:1],5,6,7,{16}8/4,5/1,{8}4/8,
7/3h[16:1],2/6h[16:1],5h[16:1]/1V35[4:1]*V75[4:1],3/7,{2}1/5w1b[4:1],
{8},1xs5b[2:3],{4},,,,,,,1pp4[32:19]/5v8b[16:1],
5,7-4[16:1],7b,
5pp8[32:19]/1v4b[16:1],1,3-8[16:1],3b,
6>2[4:1]/2-6b[16:1],6/2V86[4:1],5-1[16:1],5pp1[8:7]*-2b[16:1],
5,2v7[16:1],2-5[16:1],2b,
3V57[4:1]/7v4b[16:1],7>3[4:1],8-4[16:1],8-3b[16:1]*qq4[8:7],
8-2[16:1],8,1-5[16:1],1b,
{32}3b,4,3,4,2,5,2,5,1b,2,3,4,7,6,5,4,8b,7,8,7,1,6,1,6,3b,2,1,8,5,6,7,8,
4b,5,4,5,3,6,3,6,1b,2,3,4,8,7,6,5,1b,2,3,4,8,1,2,3,7,8,1,2,6,7,8,1,
4b,5,3,6,4,5,3,6,4,5,3,6,2,7,1,8,2,7,1,8,2,7,1,8,1b,2,3,4,8,7,6,5,
2b,1,2,1,3,4,3,4,8,7,8,7,5,6,5,6,1b,2,3,4,8,7,6,5,{64}1b,2,3,4,5,6,7,8,{8}1/Cfh[16:1],
1h[16:1]/5h[16:1],2h[16:1]/6h[16:1],3h[16:1]/7h[16:1],4h[16:1]/8h[16:1],5h[16:1]/1h[16:1],6h[16:1]/2h[16:1],7h[16:1]/3h[16:1],8h[16:1]/4h[16:1],
{16}1/5h[16:1],1,2/6h[16:1],2,3/7h[16:1],3,4/8h[16:1],4,5/1h[16:1],5,6/2h[16:1],6,7/3h[16:1],7,8/4h[16:1],8,
{32}4b,8,3,7,2,6,1,5,8,4,1,5,2,6,3,7,4,8,3,8,2,8,1,8,1,8,1,7,1,6,1,5,
{64}1b,8,7,6,5,4,3,2,1,8,7,6,5,4,3,2,1,8,7,6,5,4,3,2,1,8,7,6,5,4,3,2,1,8,7,6,5,4,3,2,1,8,7,6,5,4,3,2,1,8,7,6,5,4,3,2,1,8,7,6,5,4,3,2,
{32}1x,8x,1x,8x,2,7,3,6,4,5,3,4,2,5,1,6,8,7,8,8,8,8,8,8,8,8,8,8,8,8,{16},{32}1bh,
5,1h,5,1h,5,1h,5,5/1h,2/6,3/7,4/8,5,6,7,8,1/7h,2/6,3/5,4,3,2,1,8,7/3h,6/2,5/1,8/4,7,6,5,4,
{8}3-8[16:1]/7-4[16:1],3-5b[16:1]/7-1b[16:1],3/7,7/3,{32}8-5[16:1]*-3[16:1],1/7,2/6,5/3,{16}4-1b[16:1]*-7b[16:1],2/6,{8}8,4,
{32}8b,8h,8,8h,8,8h,8,8h,1/7h,2/6,3/5,4,3,2,1,8,7/3h,6/2,5/1,4/8,7,6,5,4,3/5s1[16:1],6/2,7/1,8,1,2,3,4,
{8}5/1,{32}2,6,3,7,4,8,3,7,2,6,1,5,{16}8/4,{32}2h,5,8h,6,4h,1,3h,5,1h,6,4h,8,2h,6,
{4}7/3h[8:1],{32}8/4h,7/3,6/2,5/1,8,7,6,5,4/6h,7/3,8/2,1,2,3,4,5,6/2h,7/3,8/4,1/5,6,7,8,1,
{8}2-5[16:1]/6-1[16:1],2-8b[16:1]/6-4b[16:1],2/6,2/6,{32}4-1[16:1]*-7[16:1],5/3,6/2,1/7,{16}8-3b[16:1]*-5b[16:1],2/6,{8}4,8,
{32}4bh,4,4h,4,4h,4,4h,4,3/5h,6/2,7/1,8,1,2,3,4,5/1h,6/2,7/3,8/4,5,6,7,8,1/7h,2/6,3/5,4,3,2,1,8,
{8}3bh[2:1]/7h[2:1],{2},{64}E2,E3,E4,E5,E6,E7,E8,E1,{4}Cfh[8:1],
{16}8z4[8:1],7,6,5,{4}4h[8:1],2h[8:1]/6h[8:1],3h[8:1]/7h[8:1],
{16}1p4[8:1],2,3,4,{4}1/5h[8:1],{16}5,4,6,3,7,2,8,1,
8q5[8:1],7,6,5,{4}8/4h[8:1],8h[8:1]/4h[8:1],1h[8:1]/5h[8:1],
{16}1,2,3,4,5,6,{8}7h[8:1],{16}8s4[8:1],6,4z8b[8:1],2h[16:3],{4},{32}1b,
2,3,4,2,3,4,5,3,4,5,6,4,5,6,7,4b,5,4,5,3,6,3,6,2,7,2,7,1,8,1,8,
2b,1,2,1,3,8,3,8,4b,5,6,7,8,1,2,3,7b,8,7,8,6,1,6,1,5b,4,3,2,1,8,7,6,
5/1bh,2,3,4,5/1h,6,7,8,1/5h,6/2,7/3,8/4,1/5,2,3,4,5/1h,6,7,8,1/5h,2,3,4,5/1h,6/2,7/3,8/4,{8}1/5,
{32}4b,5,4,5,3,6,3,6,2b,4,3,7,5,6,2,4,3,7,5,6,1,3,2,8,6,7,1,3,2,8,6,7,
{48}2b,3,4,8,7,6,1,2,3,7,6,5,2b,3,4,1,2,3,8,1,2,7,8,1,{2}6bx<5b[8:1],
{4}5-1[8:1],5,{8}8h/1xz5[8:1],2,{4}1/6h[8:1],
4-8[8:1],4,{8}1h/8xs4[8:1],7,{4}8/3h[8:1],
5h[8:1]/4-1[8:1],4,{8}8h/1xs5b[8:1],2/7,{4}1/8h[8:1],
4h[8:1]/5-8[8:1],5,{8}1h/8xz4b[8:1],2/7,{4}8/1h[8:1],
{8},3h[8:1],5h[8:1],4h[8:1],6h[8:1],2h[8:1],8h[8:1],1h[8:1],
{16}7h[8:1],8,1h[8:1],8,7h[8:1],8,2h[8:1],8,6h[8:1],1,3h[8:1],7,5h[8:1],2,3h[8:1],6,
5h[16:1],4h[16:1],3h[16:1],2h[16:1],1h[16:1],8h[16:1],7h[16:1],6h[16:1],{4}5h[4:1],1h[4:1],
{2}7h[16:15],{16}3bh[16:7],{8},,,{32}E3/E7/D3/D7,B1/B5/Cf,
{1}A4/A8,
E
