&title=Tanzschein
&artist=COSMÓ
&first=0
&des=Akris_Ren
&lv_5=13
&des_5=Akris_Ren
&demo_len=16
&demo_seek=51
&clock_count=4
&inote_5=
(130){4},{1},{4},,,{16},,,5h[4:1]/4h[4:1],
,,,,,,,,,,,,,,,6h[4:1]/3h[4:1],
,,,,,,,,,6,,4/5,
,5,,4-7[4:1],,,,,,,,,,5,,3,
,6h[8:1],,4-1[16:3],,,,,,,,,,5,,4,
,6/5,,5-2[4:1],,,,,,,,,,5,,4,
,6<2[16:5]/2v4[16:5],,6/2,,,,,,,,,,7,,3,
,6,,6-8-4[8:3]/3-1-5[8:3],,,,,,,,,,,,8,
,7/2,,7h[8:1]/2h[8:1],,,,6h[8:1]/3h[8:1],,,,B5,,B2,,,,6,
,2,,7,,5h[8:1],,1,,4-1[16:3],,7,,4,
,7,,3,,5,,6/3,,7-4[8:1],,,,,,3,
,5,,6h[8:1]/3h[8:1],,,,,,4,,5-1[16:3],,,,,,,,8<4[16:3],
,4,,,,,,3-8[16:3],,8,,,,,,6h[8:1],
,,,6h[8:1]/4h[8:1],,,,5h[8:1]/3h[8:1],,,,4,
,3/5,,7-2[8:1],,2-5[8:1],,7,,,,6,,6>3[8:1],,,,,,,,,,4/5h[8:1],
,3,,6h[8:1],,3,,7h[8:1],
,2,,3h[8:1],,6,,7/5,,6,,4h[8:1],,6,,7h[8:1],
,,,6,,4,,5,,3,,6,,5h[8:1]/4h[8:1],,,,5,
,7-2[16:3],,2,,3-6[4:1],,,,,,,,,,,,,,,,6-1[4:1]/4-1[4:1],
,,,4/6,,,,,,5,
,4h[8:1],,5,,6h[8:1],,4,,3h[4:1],,,,6,
,5,,4h[8:1]/6h[8:1],,,,5,,3,,6h[8:1],,2,,,,5,
,4,,6/3,,5,,4,,6q4[16:5],,,,6,
,,,,,,,3-8[4:1]/5-8[4:1],,,,5/3,,,,,,5,
,4,,6/3,,7,,4,,6h[4:1],,,,2,
,3/5,,4h[4:1],,,,,,5,3,5h[4:1],,,,4,
,3,,6h[4:1]/3h[4:1],,,,,,,,7,,2,,5,
,8,,8-3-5-8[8:5],,,,,,,,,,,,,,,,1-6-4-1[8:5],
,,,,,,,,,,,,,,,8-2-5-8[2:1]/1-7-4-1[2:1],
,,,,,,,,,,,,,,,E2,
,,,E2,,,,7/2,,,,7/2,
,,,8-3-5-8[2:1],,,,,,,,,,,,,,,,1-6-4-1[2:1],
,,,,,,,,,,,,,,,8-3-5-8[16:9]/1-6-4-1[16:9],
,,,,,,,,,,,,,,,B1,
,,,B1,,,,Ch[2:1],,,,,,,,,,3,
,5,,4,,8h[4:1]/7h[4:1],,,,,,6,
,4,5h[16:1],,,6,,3,,B7/C/E4,,B3/B2/E2,,,,2,
,4h[4:1],,3,,2,,1,,6,,4/5,,3,
,5,,4,,3,,2,,1,,8,,7h[8:1],,,,,,4/5,
,6/3,,5,4,,,5h[4:1]/4h[4:1],,,,,,,,4,
,5,,4h[8:1],,5,,3h[16:3]/6h[16:3],,,,,,5,
,4/6,,5,,4/2,,3,,7/5,,6,,4/2,
,3,,6,,4,,5h[8:1],,4,,5q2[4:1]/1q6[4:1],,,,,,,,,,,,6-1[4:1]/4-1[4:1],
,,,4/6,,,,,,3,
,5,,2,,4-8[8:3],,,,4,,,,1,
,,,2,,3,,4h[8:1],,6V82[4:1],,6,,,,,,3,
,6,,5,,3,,4,,4v6[4:1]/3v1[4:1],,,,3/4,
,,,,,,,6-1[16:3]/4-1[16:3],,,,4/6,,,,5,
,4,,6,,3,,5,,4,,3h[8:1],,,,5h[8:1],
,4,,3h[16:3],,,,,,4,,5bx,,4bx,,6bx/5bx,
,4bx/3bx,,5bxh[16:5],,,,,,,,4,,6,,3,
,8,,8-3-5-8[2:1],,,,,,,,,,,,,,,,1-6-4-1[2:1],
,,,,,,,,,,,,,,,8-3-5-8[16:9]/1-6-4-1[16:9],
,,,,,,,,,,,,,,,E2,
,,,E2,,,,7/2,,,,7/2,
,,,8-3-5-8[2:1],,,,,,,,,,,,,,,,1-6-4-1[2:1],
,,,,,,,,,,,,,,,8-3-5-8[16:9]/1-6-4-1[16:9],
,,,,,,,,,,,,,,,B1,
,,,B1,,,,Ch[4:1],,,,,,,,4>8[4:1],
,,,8<4[4:1],,,,4>8[4:1],,,,8<4[4:1],
,,,4>8[4:1],,,,8<4[16:3],,,,,,,,3,
,4,,5-8[4:3],,,,,,,,,,,,1-4[4:3],
,,,,,,,,,,,,,,,,,,,6-3[4:3],
,,,,,,,,,,,,,,,2-7[2:1],
,,,,,,,,,,,,,,,5,
,6/4,,7/3,,8<5[4:1]/2>5[4:1],,2/8,,,,,,,,5,
,4,,7,,3<7[16:3],,7,,,,,,,,4,
,7,,5,,3,,4>8[16:3],,,,4,
,,,,,5,,B7/E7/B6,,B2/E3/B3,,B5/B4/E5,,,,,,,,4b,
,,{8}6b,{16},2b,,7b,,,,,,6x,
,7xh[16:3]/3xh[16:3],,,,,,7xq4[16:5]/3xq8[16:5],,3x/7x,,,,,,,,6bx,
,,{8}3bx,{16},5bx,,2bx,,,,5xh[8:1],
,,,4xq1[2:1]/5xp8[2:1],,,,,,,,,,,,,,,,8x<4[2:3]/4x>8[2:3],
{1},{4},,,{16},5x,
,4xh[16:3],,,{8}5x,{16},6x,,5xh[16:3],,4x,{8}3x,
{16},4x,,,,4xw8[16:23]/5xw1[16:23],{1},{4},,,{16},C,
,,,,,B6,,E6,,,,,,E4,
,B3,,4,,5,,3/6,,5h[8:1],,4,,6,
,4,,5b-8b[8:1]/1b-4b[8:1],,,,5b/1b,,,,,,5,,4,
,6/3,,5b-1b[16:3]/3b-1b[16:3],,,,3b/5b,,,,,,6,,4,
,5,,5b-1b[8:1]/3b-7b[8:1],,,,3b/5b,,,,,,6,,4,
,6,,3bp7b[16:3]/4bp7b[16:3],,5bx,,3b/4b,,,,5,,4,,6,
,3,,8b-4b[16:3]/1b-4b[16:3],,,,8b/1b,,,,,,5,,4,
,6/3,,6b<2b[16:3]/2bv4b[16:3],,,,2b/6b,,,,,,5,,4/6,
,5,,5bq2b[16:3]/1b-4b[16:3],,,,5b/1b,,,,,,5,,3/6,
,4,,5bq2b[8:1]/3bq8b[8:1],,,,3b/5b,,,,E6,B3,B8,,B5h[16:5],
E
