&title=MARENOL
&artist=leaf
&first=0.075
&lv_5=14.6
&des_5=DSAT
&inote_5=
(140){4},,,,{64}1x,
2x,8x,7x,1x,2x,8x,7x,1x,2x,8x,7x,1x,2x,8x,7x,1x,2x,8x,7x,1x,2x,8x,7x,1x,2x,8x,7x,1x,2x,8x,7x,1x,2x,8x,7x,1x,2x,8x,7x,1x,2x,8x,7x,1x,2x,8x,7x,1x,2x,8x,7x,1x,2x,8x,7x,1x,2x,8x,7x,1x,2x,8x,7x,
{2}1x-5qq4>1[8:5],{16}7,7,,6,{8}6<8[8:1],5,
{4}6/2>4[8:1],2/1<6[8:1],1-4[8:1]/2-4[8:1],2/1qq6[4:3],
1/2>5[8:1],2,6pp1[4:3],5>3[8:1],
5,2pp5[8:3],2,8-4[8:1],
{8}8<5[8:1],3,8,{16}2,4,1>4[8:1],3,{8}1,{4}5xh[4:1]/1x-5[8:1],
{8}1>4[8:1],6,1,{16}7,5,8<5[8:1],6,{8}8,{4}4xh[4:1]/8x-4[8:1],
{8}8<5[8:1],3,8,{16}2,4,1>4[8:1],3,{8}1<8z4<5s1<8b[8:5],{4}5x/1xs5>4z8>1[2:1],
,,{48}D2,A2,D3,A3,D4,A4,D5,A5,D6,A6,D7,A7,D8,A8,D1,A1,D2,A2,D3,A3,D4,A4,D5,A5,
{4}E2h[2:1]/E6h[2:1]/B6h[2:1]/B1h[2:1]/B2h[2:1]/B5h[2:1],,,{64}E2/E6,{384}B1,B5,,,,,B8,B4,,,,,E8,E4,,,,,A7,A3,{16},,{64},,,{96},{48}7bx/3bx,
2/6,1/5,4/8v1-3[8:1],,,,,,{16}4,{8}4,5-7-4v3b[16:3],2x,2x,1x,1x,
{48}8bx/4bx,5/1,6/2,3/7v6-4[8:1],,,,,,{16}3,{8}3,2-8-3-7-4-6b[4:1],5x,6x,7x,8x,
{48}8bx,7,6,5v6-8[8:1],,,,,,{16}3,{8}3,2,{48}2x/1xs5b[8:1],3,4,5,{12}6xh[6:1],{48},,,,D6f,A5,D5,A4,D4,A3,{8}D3,
{48}7b/8b,B7f,B6,B5,,,,,,,,,8b/1b,B8f,C,B4,,,,,,,,,1b/2b>2b[4:1],B2f,B3,B4,{16},,{64},,{96},{64}A2f,D3,A3,D4,A4,D5,A5,D6,A6,D7,A7,D8,A8,D1,A1,D2,
{16}A2/6-1-7-4[16:3],,,4-8[16:1],{4}4,{16}1,1v4>1[8:1],7,7,{4}1,
{32}6,7,8,1,2,3,4,5,6/1,8,7,6,5,4,3,2,1/5,4,3,2,1,8,7,6,5/8,7,6,5,4,3,2,1,
{4}8>4[8:1],{32}4,5,6,7,8,1,2,3,{4}4/8>4[8:1],{32}4,5,6,7,8,1,2,3,
{8}8b/4b,{16}2b/6b,6b/2b,{8}6b/2b,7b/3b,{4}4b/8bw4[8:1]*w4[8:1],Cf/B7/B8/B1/B2/B3/B4/B5/B6,
1xs5s1<8[2:7],B7,B6,{8}B5,Ch[32:1],
{4}5x>4z8>1b[2:5],B4,B3,B2,
B1,B8,B7,B6,
B5,B4,{2}B3h[2:1],
{16}8h,7,6,5,4,3,2,1,{24}8h,7,6,5,4,3,2,1,8,7,6,5,
{32}1h,2,3,4,5,6,7,8,1,2,3,4,5,6,7,8,{48}1h,2,3,4,5,6,7,8,1,2,3,4,5,6,7,8,1,2,3,4,5,6,{24}7,
{32}8xh[64:1],4xh[64:1],8xh[64:1],4xh[64:1],8xh[64:1],4xh[64:1],8xh[64:1],4xh[64:1],1xh[64:1],5xh[64:1],1xh[64:1],5xh[64:1],1xh[64:1],5xh[64:1],1xh[64:1],5xh[64:1],2bxh[32:1],6bxh[32:1],{16}3bxh[16:1],7bxh,4bxh,{48}8xq3b[8:7],4x,8x,4x,8x,4x,8xp5b[4:3],4x,8x,4x,8x,4x,
{1}8bx,
{8}6,5,4,3,6,5,4,3,
6,5,4,3,6,5,4,3,
2/6,1,8,7,6/2,5,4,3,
2/6,1,8,7,6/2,5/1s5[8:1],{4}1/5<5[8:3]*>5[8:3],
{12},,,,,,3h/5-7v8[16:3],3h,3h,4h,4h,4h,
{4}5>1[8:1],{12}7h,6h,5h,{4}8-3[8:1]/4-7[8:1],8q1>4[8:3]/4q5<8[8:3],
,,{48}2-5-3-8[4:1],1h/3h,{384}8,4,,,,,,,{48}7h/5h,6,,,,,,,,{8}2/7-4[8:1],6,
{4}7-1v2>3-8[8:3],{12}6h,6h,6h,5h,5h,5h,4z8[8:1],,,{2}4<8[8:1]*>8[8:1],
{12}2h/8-6v5[16:3],2h,2h,1h,1h,1h,
{4}8>4[8:1],{12}6h,7h,8h,{4}5-2[8:1]/1-6[8:1],5p4>1[8:3]/1p8<5[8:3],
{8},,,,B6,B5,B4,B3,
{4}B8h[8:7],B1h[8:5],B7h[8:3],{16}B2h[8:1],,,,
{2}5/E7/B6/B5/B4/B3/E3/E4/E6/E5/Ch[8:0]/4xp8[8:1]*q8[8:1],{32}2b,6,2,6,2,6,2,6q6b[32:9],2p2b[4:1],6,2,6,2,6,2,6,
{2}2x,{32}3b,7,3,7,3,7,3,7q7b[32:9],3p3b[4:1],7,3,7,3,7,3,7,
{2}3x,{32}2b,4,2,4,2,4,2,4,2-8-6-4b[4:1]*<4b[4:1],4,2,4,2,4,2,4,
{2}2x,{32}7b,5,7,5,7,5,7,5,7-1-3-5b[4:1]*>5b[4:1],5,7,5,7,5,7,5,
{4}7x,E3,C,E7,
Cf,{12}E6f/B6,E2f/B2,E8f/B8,{4}E4f/B4,Cf,
{48}8b/2b,7/3,6/4,5,,,,,,,,,{24}6,5,6,5,,6,{48}2x/E3f,E4,{24}A4,{48},,8x/E8f,E7,{12}A6,{48}1x/B1f,C,{24}B5,{48},,,,,,,,1b/7b,
2/6,3/5,4,,,,,{12}6b/2b,7b/3b,3b/7b,7b/3b,{32}7b/3b,4x,5x,6x,7x,8x,1x,2x,3b/7b,6x,5x,4x,3x,2x,1x,8x,
{4}7b/3b,{32}3,4,3,4,3,4,{16}3,{48}7x/E7f,E6,{24}A5,{48},,1x/E2f,E3,{12}A3,{48}8x/B8f,C,{24}B4,,,,,{6}7b/2b,
{24}1,8,{32}1,8,1,8,1,8,1,8,{48}2x/E3f,E4,{24}A4,{48},,8x/E8f,E7,{12}A6,{48}1x/B1f,C,{24}B5,,,,,{8}6b/3b,
{16}4,5,{32}4,5,4,5,4,5,4,5,{48}3bx/6bx,7bx/2bx,{24}8bx/1bx,{96},,,,{32}1,8,1,8,{12}1h,1h,1h,
{8}1bq4[8:3]*q6[8:3],,,,,,,Ch[8:1],
{4}6h[4:1],5h[4:1],4h[4:1],3h[4:1],
6h[4:1],5h[4:1],4h[4:1],3h[4:1],
{8}6,6,4,4,5,5,3,3,
{4}6h[8:1]/4h[8:1],3h[8:1]/5h[8:1],5h[8:1]/6h[8:1],3h[8:1]/4h[8:1],
6h[4:1],{8}3,{16}5,4,{8}5,3,{4}5,
3h[4:1],{8}6,{16}4,5,{8}4,6,{4}4z8[16:15],
{1}4b,
{64}1x,2x,8x,7x,1x,2x,8x,7x,1x,2x,8x,7x,1x,2x,8x,7x,1x,2x,8x,7x,1x,2x,8x,7x,1x,2x,8x,7x,1x,2x,8x,7x,1x,2x,8x,7x,1x,2x,8x,7x,1x,2x,8x,7x,1x,2x,8x,7x,1x,2x,8x,7x,1x,2x,8x,7x,1x,2x,8x,7x,1x,2x,8x,7x,
{4}1x,{8}7-5-1[4:1],{16}1,1,{8}1-3-7[4:1],2,{4}4>8[8:1],
4,{8}4v5-7>8[4:1],{16}8,8,{8}8-3-7[4:1],3,{4}4,
{8}4<7[8:1],3,2/4,1,8V62[8:1],7,6/8,5,
4-2-6[8:1],3,2/4,1,8-6-2[8:1],7,6/8,5,
{4}4<7[32:3],{8}2-4-8[4:1],{16}8,8,{8}8-6-2[4:1],7,{4}5<1[8:1],
5,{8}5v4-2<1[4:1],{16}1,1,{8}1-6-2[4:1],6,{4}5,
{8}5>2[8:1],6,7/5,8,1V37[8:1],2,3/1,4,
5-7-3[8:1],6,7/5,8,1-3-7[8:1],2,3/1,4,
{4}5>2[32:3],6xh[4:1],{8}1-6[8:1],6-1[8:1],{4}1-5[8:1]/7-3[8:1],
,3xh[4:1],{8}8-3[8:1],3-8[8:1],{4}2-6[8:1]/8-4[8:1],
{8},,2pp5[16:3],1,8/2,7,6pp1[16:3],5,
4/6,3,2pp5[16:3],1,8/2,7,6pp1[16:3],5,
{4}4/6,3xh[4:1],{8}8-3[8:1],3-8[8:1],{4}8-4[8:1]/2-6[8:1],
,6xh[4:1],{8}1-6[8:1],6-1[8:1],{4}1-5[8:1]/7-3[8:1],
{8},,6p4[16:3],7,8/6,1,2p8[16:3],3,
4/2,5,6p4[16:3],7,8/6,1,2p8[16:3],3,
{2}2/4v5b[4:19],{8}E7,E8,{4}E1,
,8h[2:1],{8}E3,E2,{4}E1,
{8},,,,7,7,{4}7h[4:5],
B8/E1/B1,B1/E2/B2,B2/B3/E3,B3/B4/E4,
{2}B5/B4/E5,{8}6,6pp1[2:1],{4}6,
,2-8-3-8-2[4:3],{8}8,7,{4}6-4-7[4:1],
{8},,,,E7,E8,E1,E2,
{4}E3h[1:1],E7h[4:3],E4h[2:1],E6h[4:1],
E
&lv_6=14.0
&des_6=
&inote_6=
(70){4},,{96}8,1/7,2/6,3/5,{24}4z8[3:1],{16},,{64},,{96},{64}1x,1x,1x,1x,1x,1x,1x,1x,1x,1x,1x,1x,1x,1x,1x,1x,
{4}1x,{8}1-5[8:1],1,1/7-4[8:1],7,7/3-8[8:1],3,
3/5-1[8:1],5,5/4>1[8:1],4,4/8<5[8:1],8,8/1,1,
{16}1b,6,5/2-8-4-6[8:1],{32}3,4,3,4,{16}3,{8}2/6,{16}8,3,4/7-1-5-3[8:1],{32}6,5,6,5,{16}6,{8}7/3,
{16}2,7,8/1-4-8-5[8:1],{32}2,7,2,7,{16}2,{8}1/8,{48}7x,6x,5x,4x,3x,2x,1x,8x,7x,6x,5x,4x,{64}3xw7[4:1],2x,1x,8x,7x,6x,5x,4x,3x,2x,1x,8x,7x,6x,5x,4x,
{8}3x,,,1b,{32}8-4[16:1],8,,2,{16}2-6[16:1],8,8,2,2,5b,
{32}5-1[16:1],5,,3,{16}3-7[16:1],5,5,3,3,8b,{32}1-5[16:1],,,8,{16}2,1,{32}7s3[8:1],8,1,2,3s7[8:1],4,5,6,
{8}7<7[4:1],7,3,{64}D3,A2,D2,A1,D1,A8,D8,A7,{2}D7,
E
