&title=ウタカタ摩天楼
&artist=黄泉路テヂーモ
&first=0
&des=藍月ノ魔法使い
&lv_5=13+
&inote_5=(182)
{1},
{16},,,,,,,,,,,,,,4,5,
{16}4h[8:3],,,,,,3h[2:1],,,,,,,,1h[4:1],,
{16},,7h[4:1],,,,8,,,,,,,,,,
{16}2h[8:3]/6,,,,,,4h[4:1],,,,5h[4:1],,,,8h[4:3],,
{16},,,,,,3h[4:1],,,,,,,,,,
{16}5h[8:3]/4x,,,,,,6h[2:1],,,,,,,,8h[4:1],,
{16},,2^5[8:1],,1,,2,,,,7>5[8:7],,5,,7b,,
{16},,,,,,,,,,1,,1,,,,
{16}35,,4,,5,,4-8[8:1]/6,,,,1w5[8:1],,,,1b,,
{16},,3,,2h[16:3]/4,,,1,2,,8h[4:1]/3,,,,4qq5[3:1],,
{16},,4,,6,,7,,8,,8w4[8:1],,,,8b,,
{16},,6,,7h[16:3]/5,,,8,7,,16,2,3,5,6,7,
{16}2xh[8:1]/8xh[8:1],,,3xh[8:1]/7xh[8:1],,,46,,4b/6b,,2,1,2,1,2,1,
{16}E3,,,,,,E5,,,,,,E7,,,,,,E4,,,,E6,,,,
{16}2xpp3[8:4]/7xqq6[8:4],,,,,,,,,,,,,,2b/8b,,,,4bz8[4:1]/6b,,,,
{16}1bh[4:1],,,,,,2x,7,3,6,
{16}1,,1^6[8:1],,8,,2h[4:1],,,,4^1[8:1],,2,,5h[4:1],,
{16},,8,,17,,2v4[8:1]/6v4[8:1],,,,26,,,,3x/5x,,
{16}3/5<4[8:3],26,1h[2:1]/7,,,,,,,,,,5x<4[8:3],,6h[2:1],,
{16},,,,,,,,,,57,,,,24,,
{16}8,,8^3[8:1],,1,,7h[4:1],,,,5^8[8:1],,7,,4h[4:1],,
{16},,1,,82,,7-4[8:1]/3-8[8:1],,,,37,,,,15,,
{16}2,3,4qq2[8:1],,,,8,7,6pp5[3:1],,,,3,,3,,
{16},,2,,34,,5,,4,,65,,7,4,7,4,
{16}1x,,1-6[8:1],,,,5-2[8:1],,,,1-6[8:1],,,,5-2[8:1],,
{16},,7h[4:1],,,,1,,7,,3,,24,,,,
{16}78,,6V47[4:1],,,,4,,,,2,,1,,8-4[8:1]/3,,
{16},,2,,1h[4:1],,,,5,,3,4,3,,7,,
{16}8x/6,,8-3[8:1],,,,4-7[8:1],,,,8-3[8:1],,,,4-7[8:1],,
{16},,2h[4:1],,,,8,,2,,6,,57,,,,
{16}12,,3-5[8:1],,,,5,,7-4[8:1],,2-6[8:1],,7,,2b,,
{16},,47,,5,6,5,7,4,5,4,6,3,4,3,5,
{16}2h[8:11],,,,,,,,,,,,,,,,
{16},,,,,,,,,,,,,,,,
{16}4h[8:11],,,,,,,,,,,,,,,,
{16},,,,,,,,,,,,,,,,
{16}6h[8:11],,,,,,,,,,,,,,,,
{16},,,,,,,,,,,,,,,,
{16}8s4pp6[8:9]*z4qq2[8:9],,,,,,,,,,,,,,,,
{16},,,,,,,,,,,,,2,3,4,
{16}5qq5[4:3]/6,,,,6,,,,6,,,,6,,,,
{16}6,,,,6,,,,6,,4x/7x,,,,5,,
{16}4pp4[4:3]/3,,,,3,,,,3,,,,3,,,,
{16}3,,4x,,3,,,,3,,,,3,,5,5,
{16}4,,,,65,,7,,,,34,,2,,37,,
{16},,8,,8,,17,,,35,,2,6,2,6,2,
{16}6,,3,,4,,5b^2[8:1],,,,8b-4[8:1],,,,1b,,
{16},,3,,5,,2bh[4:1]/6h[4:1],,,,,,1,7,2,6,
{16}1-5[8:1],,5-1[8:1],,7,,6-4[8:1],,,,7-3[8:1],,,,8-2[8:1],,
{16},,5qq2[8:3]*pp8[8:3],,,,5,,,,,,,,3x/7x,,
{16}2-5[8:1],,5-3[8:1],,7,,6-2[8:1],,,,7-1[8:1],,,,4-6v7[4:1],,
{16},,2,,3,,4h[4:1],,,,6,,2,8,3,7,
{16}2-6[8:1],,6-2[8:1],,8,,7-5[8:1],,,,8-4[8:1],,,,1-3[8:1],,
{16},,5pp2[8:3]*pp4[8:3],,,,5,,,,,,,,1x/5x,,
{16}2-6[8:1],,6-4[8:1],,8,,7-3[8:1]*-1[8:1],,,,7,,,,4xb^1[8:1],,
{16},,8xp3[8:1]/4x^7[8:1],,6,,4xb/8xb,,,,7,5,6,2,4,3,
{16}8-4[8:1],,4-8[8:1],,2,,3-5[8:1],,,,2-6[8:1],,,,1-7[8:1],,
{16},,4pp7[8:3]*qq1[8:3],,,,4,,,,,,,,6x/2x,,
{16}7-4[8:1],,4-6[8:1],,2,,3-7[8:1],,,,2-8[8:1],,,,5-3v2[4:1],,
{16},,7,,6,,5h[4:1],,,,3,,7,1,6,2,
{16}7-3[8:1],,3-7[8:1],,1,,2-5[8:1],,,,1-5[8:1],,,,8b-5[8:1],,
{16},,4^7[8:1]/8^3[8:1],,2,,8b-5[8:1]/4x,,,,4^7[8:1]/8^3[8:1],,2,,4xb/8b,,
{16},,1x,,1x,,1x,,24,,35,,46,,57,,
{16}2b/8b,,3,4,3,,1b/7b,,6,5,6,4,7,3,8/E2f,,
{16},,,,2,1,2,1,2,1,2,1,2,1,3-7[8:1]*-5[8:1],,
{16},,3,,,,7,4,6,5,8-5[8:1]*-3[8:1],,2,,8,,
{16},,46,,37,,2-6[8:1]/8,,,,1w5[8:1],,,,1,,
{16},,2,4,3,5,4,,7,5,6,4,5,3,4,,
{16}2b/5b,,,,6^1[8:1],,5,,4,,3^6[8:1],,2,,1,,
{16}8,,71,,62,,53,,,,7-4[8:1],,5,,47,,
{16},,2-6[8:1],,4,,26,,,,8-3[8:1],,5,,8b/3b,,
{16},,4,5,3,5,4,6,4,5,2,5,4,7,1,,
{16}2b/8b,,,,47,,6,5,6h[8:1],,8h[8:1],,1h[8:1],,3,,
{16},,2,4,3,,7,5,6,4,,4,5,,2h[8:1],,
{16}4h[8:1],,5h[8:1],,7,,38,,38,,38,,38,,2b/6b,,
{16}17,,3/5h[4:1],,,,{24}6,7,8,1,2,3,7,8,1,2,3,4,{32}E1,B1,C,B5,
{16}E5f,,,,2,4,2h[8:1],,3,,17,,,,2,4,
{16}2h[8:1],,5h[8:1],,3,,17,,,,65,,45,,3/4-8[8:1],,
{16},,1,,1h[4:1],,,,7,1,6h[16:4],2h[16:3],,,,,
{24}35,2,1,7,6,5,3,2,1,7,6,5,3,2,1,7,6,5,{16},,B8/Cf/B4/A8/A4,,
{16},,2x^5[8:1]/6x^1[8:1],,1,,2/6p1[8:1],,,,8-5[8:1],,,,4-8[8:1],,
{16},,1-4[8:1],,,,7qq8[4:1],,,,,,,,2,,
{16}2-6[8:1],,6-2[8:1],,7,,8-5[8:1],,,,8-3[8:1],,,,4-6v7[4:1],,
{16},,3,,2,,1h[4:1],,,,7,1,7,,26,,
{16}7^4[8:1],,3^8[8:1],,7,,3q8[8:1],,,,1-4[8:1],,,,5-1[8:1],,
{16},,8-5[8:1],,,,2pp1[4:1],,,,,,,,7,,
{16}7^4[8:1],,3q8[8:1],,7,,3,,,,1x^6[8:1]/2x^5[8:1],,,,1b/2b,,
{16},,2,8,4,6,1,7,3,5,2,8,5qq4[6:1],,73,,
{16}5xb/E4f,,,,1x,,1x-5[8:1],,,,8-3[8:1],,,,2-7[8:1],,
{16},,1-5[8:1],,,,4qq5[4:1],,,,,,,,7,,
{16}7-3[8:1],,3-7[8:1],,2,,1-4[8:1],,,,1-6[8:1],,,,5-3v2[4:1],,
{16},,7,,6,,5h[4:1],,,,4,5,4pp5b[6:1],,26,,
{16}4xb/E6f,,,,8x,,8x-4[8:1],,,,1-6[8:1],,,,7-2[8:1],,
{16},,8-4[8:1],,,,5pp4[4:1],,,,,,,,2,,
{16}2^5[8:1],,6p1[8:1],,2,,6,,,,8x^3[8:1]/7x^4[8:1],,,,8b/7b,,
{16},,26,,1,7,1,7,2,6,3,5,1-5[8:1],7,2,6,
{16}1b`Cf,,,,,,7,4,7h[8:1],,5h[8:1],,6h[8:1],,1<5[6:1],,
{16},,3,,,,8>4[6:1],,,,6,,,,51,,
{16}3,8,3,8,3,8,3,8,1-6[8:1],,6-1[8:1],,1^4-7[4:1]*^4-8[4:1],,,,
{16},,,,,,,,6,2,5,3,7-3[8:1],1,6,2,
{16}7b`Cf,,,,,,2,5,2h[8:1],,4h[8:1],,3h[8:1],,8>4[6:1],,
{16},,6,,,,1<5[6:1],,,,3,,,,48,,
{16},,1,6,8,6,7,6,5,6,4,6,3,6,{32}2b,1xb,8xb,7xb,
{32}6xb,5xb,4xb,3xb,{16}2xb,,7,8,7,8,6,1,5,2,4,3,5,4,
{16}6b^5s1^8z4^3[4:15],,,,,,,,,,,,,,,,
{16},,,,,,,,,,,,,,,,
{16},,,,,,,,,,,,,,,,
{16},,,,,,,,,,,,,,,,
{16}2h[8:27],,,,,,,,,,,,,,,,
{16},,,,,,,,,,,,,,,,
{16}6h[8:11],,,,,,,,,,,,,,,,
{16},,,,,,,,,,,,,,,,
