&title=Black Shout
&artist=Roselia
&first=0
&des=R1nk0
&lv_5=14
&des_5=R1nk0
&inote_5=
(185){4},,,,,,,,1/8p5[2:1],
8/1,1pp4[2:1],1,
6,7,3/8,2/1,
3V57[2:1],3/2,1>4[2:1],1,
{8}B7,B6,{4}B5,{8}5>1[4:1],3,{4}5h[4:1],
{8},,5,3h,5,3h,1,3h,
5,3h,1,4h,3-8[8:1],4,{4}3,
{8}7,8,7,8,7,8,{4}7/1-5[8:1],
{1}1w5b[2:1],
{8}3b/6h[2:1],4h,3,3h,3,7,3,6,
3,,,5-8[4:1]/4z8[4:1],,5/4,,,{4}1pp4[2:1],
{8}1/8,7h[8:1],,7,6,3,
2,,,3,,3,,,4,
3,{4}4,{8}3/5,4,5,4,
5,,,8-5[8:1]/7-4[8:1],,A8/A7/D8,,,3,
4,3,5,3,6,3,7,
3,8,1,1h[8:1],7,7h[8:1],,,8/2,
7,8/2,3,3/7,2,1/6,2,
{4}3/5,5s1[4:1]/4z8[4:1],{2}4b/5b,
{8}3/8-4[8:1],7,8/2-6[8:1],3,2/8-4[8:1],7,8<4[4:1]*>4[4:1],3,
,,,8-5[4:1]/1v4[4:1],,8/1,,,,,3/5-8[8:1],
6,5/3-8[8:1],2,{4}3,
{8}1,8,1,8,1,8,{4}1,
{2}1h[4:1]/8h[4:1],2h[4:1]/7h[4:1],
3h[4:1]/6h[4:1],{8}5h[8:5]/4-1[8:1],4,{4}4,
{8},,1,1/6,,6,7/1,2,
2/6,7,{4}8/1,{32}1,2,3,4,5,6,7,8,{4}1b,
2b/7b,{8}1/8,7/3,{4}8/2,{8}7/8,6/1,
{4}8/7,{8}7/2,1/8,7/3,8/3,7/2,7/1,
7/1,8/2,5,4,5,3,4,3,
2/5,{16}5,2,4,3,5,2,4,3,5,2,{4}5,
1b-7[8:1]*-3[8:1],1-4[8:1],1-7[8:1]*-3[8:1],1-6[8:1]*-5[8:1],
1,{16}4,,,4,{8}5,5,{4}6,
{16}3,4,3,5,3,4,3,5,3,4,3,5,3,4,3,5,
,,4,5,3,6,4,5,3,6,4,5,{4}3,
{8}3/4-1[8:1],3,3,3,3/8-4[8:1],3,3,3,
3,3/4-1[8:1],3,3,3,3/8-4[8:1],3,3,
3,{16}3,4,3,5,4,5,{8}3,3/4,4,3/5,
4,3/5,3,3/6,{16}6,5,6,4,6,5,6,4,
{8}6,6,5/2,3,2/4,3,2/4,3,
4/3,{16}3,4,3,1,3,4,3,1,3,4,{4}3,
{32}4>4-2-8-6-4p4[4:3],3,2,1,8,7,6,5,{4}4,{8},,,,,,2,
4,3,{16}3,4,3,6,5,6,
1,8,1,8,1,8,1,8,2,7,2,7,2,7,2,7,
3,6,3,6,3,6,3,6,,,{8}5/4,4-8[8:1]/5-1[8:1],6/3,
{4}5/4,{16}3-1[8:1],5,2,4,{8}3,{16}6-8[8:1],4,7,5,{8}6,
,6h/5h,4-7[8:1]/3-8[8:1],2h/1h,{2}4h/3h,
{8}4,5-1[8:1],4,5,{16},,4,8,4,8,4,8,
4,8,3,7,3,7,3,7,4,6,4,6,4,5,4,5,
{4}4bx>8b[8:1],4bx,4bx<8b[8:1],4bx,
4bx>8b[8:1],4bx,4bx<8b[8:1],4bx,
{8}1-4[4:1],8-5[4:1],1,8,,4-1[4:1],5-8[4:1],4,
{2}5,{4}8b/1b,8b/1b,
{8}4-1[4:1],5-8[4:1],4,5,,1-4[4:1],8-5[4:1],1,
{2}8,{4}5b/4b,4b/5b,
{8}4-2[8:1],5-7[8:1],4,5,,8x<5[4:1],1>4[4:1],8x,
{2}1x,{4}4b/5b,5b/4b,
{8}4,3/6,4,7/3,4,5/4,3,5/4,
6,5/4,{16}3,6,3,6,3,6,3,6,2,7,2,7,
2,7,1,8,2,7,1,8,2,7,1,8,{32}1,2,3,4,5,6,7,8x-4[1.3378##0.1622],
1x-5[1.2973##0.1622],2,3,4,5,6,7,1xh[32:21]/8xh[32:21],{4},,,1bx/8bx,
{8}1/8-6[8:1],1,{4}1/8-2[8:1]*-4[8:1],8<5[16:1],
{16},,4,3,2,1,,8-6[8:1]/1-3[8:1],,1v8[8:1]/8v1[8:1],,,,,,,2,
6,2,6,2,6,2,6,2,6,1,5,1,5,1-5[16:1],5-1[16:1],
1,5,,,,,,,{4}1-5[8:1]/8-4[8:1],8/1,
{8}6/3,5/4,6/5,7,6/5,4,5/4,6,
5/4,{16}3,4,2,5,1,6,{4}7b/8b,8b/1b,
1/8<5[8:1],8/1>4[8:1],1/8-5[8:1],8/1-4[8:1],
8/1,{16}7b,6,5,4,8b,1,2,3,8b,7,6,5,
{8}1x-4[8:1],1x-6[8:1],1x-3[8:1],1x-5[8:1],1x-4[8:1],1x<5[16:3],1x>4[8:1],1x,
{2}1x,{4}1bx/8bx,7b/2b,
{16}3,4,2,5,1-5[8:1],6V82[16:3],8,7,1,6,,,,,{8}4,
5/3,6,5/2,2,5-8[8:1]/4-1[8:1],6,{4}5/4,
{16}1bx,2,3,4,8bx,7,6,5,1bx,2,3,4,5,6,7,8,
{8}1,{16}1,1,{8}7,7,{4}4h[8:1]/3h[8:1],6h[8:1]/5h[8:1],
4h[8:1]/2h[8:1],6h[8:1]/5h[8:1],5h[8:1]/3h[8:1],{16}4,5,3,6,
4,5,3,6,4,5,3,6,{8}5/4,5/4,,,4,
3,5,6,2,1,7,8,
{16}1,2,3,4,5,6,7,8,1-5[16:1],8,1,8,{4}1b,
{8}4,{16}4,4h[16:3],{8}5,5h[4:1],4,3,2,1w5[4:1],
E
