&title=Break The Glass
&artist=Phuture Noize
&first=0
&lv_5=13+
&des_5=纱露朵Salt
&inote_5=
(160){4},,,,,,,,,,,,,,,,Cf,
{2},{4}3xh[4:3],
{2},{4}4,5,
{8}6h[8:3],{4},{8}8h[8:3],{4},1x<4[2:1],
,,,2,
{8}1h[8:3],{4},{8}5h[8:3],{4},2q5[2:1],
{2},{4}6x,7,
{8}8h[8:3],{4},{8}2h[8:3],{4},5p4[2:1],
,,,4xh[4:1],
3x,{8}2/4,2/4,,1-5[16:3],{4},6,
{8}5/7,7/5,,8-4[16:3],{4},3,
{8}3/4,2/5,,1-5[16:3],{4},6,
{8}5/6,4/7,,8-4[16:3],{4},{8}3h[8:3],
{4},{8}7h[8:3],{4},1<3v5[2:1],
{2},{4}6h[4:1],5,
{8}7/4h[8:1],6,3/5h[8:1],2,6/1h[8:1],7,{4}8pp6[2:1],
{2},{8}3x,4xh[4:1],,5,
{4}3b-8[8:1]/6b-1[8:1],6/3,{8}1x,2h[4:1],,8,
{4}7-4[8:1]/3v8[8:1],3/7,{8}1,2h[4:1],,5,
6b,7-4[8:1],,2,{4}1-5[8:1],{8}6,7qq8[8:3],
{2},{8}2,3h[4:1],,4,
{4}2b-8[12:1]/5b-7[12:1],2/5,{8}8,7h[4:1],,1,
{4}6v1[8:1]/2-5[8:1],2/6,{8}8,7h[4:1],,4,
3b,2-5[8:1],,7b,{4}8-4[8:1],{8}2b,1-5-3-8[2:1],
{4},,,7,
1b-5-3[4:3],8,8,8,
Ch[4:3],E4,E3,E2,
8bx-4-6[4:3],1,1,1,
Ch[4:3],E6,E7,E8,
{2}2xh[4:1]/E1f,7xh[4:1]/Cf,
3xh[4:1]/Cf,6xh[4:1]/E5f,
{8}3bx/4bx,2,6b/5b,7,3b/5b,1,4b/6b,8,
{2}7h[8:3]/3h[8:5],{8}6,5h[4:1],,2,
4x,{16}3,3,{8}5x,{16}3,3,{8}6x,{16}3,3,{4}7x>2[4:1],
2x>5[4:1],5x-8[4:1],8x-3[4:1],3x-6[4:1],
{8}2x-5b[8:1],2x,{4},{8}7x,{16}5,5,{8}7x,{16}4,4,
{8}7x,{16}3,3,{8}7x,{32}2x,1x,2x,1x,{16}2x,3x,4x,5x,6x,7x,8x,1x,
{4}2b,{8}3/4,{16}6,5,{8}7,{16}3,4,{8}2,{16}6,5,
{8}7,{16}3,4,{8}2,{16}6,5,{8}8,{16}3,4,{8}1,{16}6,5,
{8}8,{16}3,4,{8}1,{16}6,5,{4}8,Cfh[1:1],
{1},{8}2x/1x,
8,1/2,3,2/1-5[8:1],8,{4}2/1,
{8}5/6,7,5/6,4,5/6-2[8:1],7,{4}5/6,
{8}3/4,2,3/4,5,4/3-8[8:1],2,{4}3/4,
{8}7/8,6,8/7,1,8/7,8/6,1/5,2/4,
{4}3b,{8}2/1,{16}7,8,{8}6,{16}2,1,{8}3,{16}7,8,
{8}6,{16}2,1,{8}3,{16}7,8,{8}5x,{16}2,1,{4}4x,
{8}7b/8b,1/6,{4},{8}4b/3b,5/2,{4},{8}6-1[8:1],
6,6x/2x-5[8:1],2,2x/7-4[8:1],7,7x/3-8[8:1],3,
{1}3x/4xh[16:59],
,,,{4}Cf,
{2},{4}2xh[4:3],
{2},{4}1,8,
{8}7h[8:3],{4},{8}2h[8:3],{4},4x<1[2:1],
,,,3,
{8}3h[8:3],{4},{8}6h[8:3],{4},8pp5[2:1],
{2},{4}6x,7,
{8}8h[8:3],{4},{8}2h[8:3],{4},5p4[2:1],
,,,4,
3h[8:5],{8}4,4,,2-6[16:3],{4},5xh[8:5],
{8}7,7,,8-3[16:3],{4},4h[8:5],
{8}5,5,,6-2[16:3],{4},1h[8:5],
{8}8,8,,8,{4}8x-2v3-5[8:3],
{8}1,{4},{8}2x,{4},3xh[4:3],
{2},{4}5,6,
{8}7/4h[8:1],6,3/5h[8:1],2,6/1h[8:1],7,{4}8>5[2:1],
{2},{8}1,2h[4:1],,5,
{4}E2f/B1/B2/6b<5[8:5],{2},{8}2x,2q3[8:3],
{2},{8}6,6h[4:1],,3,
{4}E6f/B6/B5/2b>1[8:5],{2},{8}6x,6q7[8:3],
{2},{8}2,2h[4:1],,8,
3b>7b[8:1],{4},{8}6b-2b[8:1],{4},1b-5b[8:1],
{8},7b-4b[8:1],{4},3b-8b[8:1],5bx-2b[8:1],
{1}1bxp8<2[8:9],
{8},,,,,{16}1,8,{4}2/7,
3bq5[4:3],6,7,8,
{32}E1,B8,B7,E7,{8},{32}E4,B3,B2,E2,{8},{32}E7,B6,B5,E5,{8},{4}2h[4:1],
1bqq6[4:3],2,3,4,
{32}E5,B4,B3,E3,{8},{32}E8,B7,B6,E6,{8},{32}E3,B2,B1,E1,{8},{4}4h[4:1],
{8}1,1,5-1[8:1],5,2b,3,4-8[8:1],4,
7b,6,5-1[8:1],5,1b,2,3,4,
{16}7b,5,7,5,6b,4,6,4,5bx,3,4x,2,5bx,1,6x,8,
{2}7xh[8:5],{8}2,2-6[8:1],,2x,
{4}8b-5[8:1]*-3[8:1],8b,{8}5/3-7[8:1],2,3/5-2[8:1],6,
{4}1b-6[8:1]*-4[8:1],1b,{8}4/6-2[8:1],7,6/4,3,
1-5[8:1],1x,2x,3>8[8:1],{4}3x,{8}5-1[8:1],6,
{4}5/2,{8}4/8,{16}4x/8x,7x/3x,{8}2x-5[8:1]/6x-1[8:1],1x/5x,{4}2x/6x,
4bx-2[8:1]/8bx-4[8:1],4b/8b,{8}1/5-1[8:1],6,2/5,3,
{4}4b-8[8:1]/8b-6[8:1],4b/8b,{8}1>4[8:1]/5<8[8:1],2x/6x,{4}1x/5x,
{8}1bx,1-6[8:1],,3b,{4}3-8[8:1],{8}5b,5<4[8:3],
{2},{8}1x,1-5[8:1],,1x,
{4}8-6[8:1],8/2-8[8:1],2/4-6[8:1],4/2-4[8:1],
2/6<1[8:1],6/3<6[8:1],3/1-6[8:1],1/5-2[8:1],
5/7-4[8:1],7/3-8[8:1],3/4-1[8:1],4/2-5[8:1],
2/7,{8}4/8,{16}4x/8x,7x/3x,{8}2xv5[8:1]/6xv1[8:1],1x/5x,{4}2x/6x,
4/8-6[8:1],{8}4/8-2[8:1],4,{4}4/8-6[8:1],4/8-2[8:1],
{8}4/8-6[8:1],4,{4}4/8,{8}3/5,2/1,8/7,5/6,
4b/3b>8b[8:1],{4},{8}7b<4b[8:1],{4},3b-7[1:2],
E
