&title=Flap & Clap
&artist=DJ Genki / 棗いつき
&first=0.03
&lv_5=14
&des_5=Salt★キラキラ
&inote_5=
(190){4},,,,{8}3h[8:3],
{4},{8}4,{2}5/2,
{8}6h[8:3],{4},{8}5,{2}4/7,
{8}2h[8:3],{4},{8}1,{2}3/8,
{8}7h[8:3],{4},{8}8,{2}6/1,
{4}4/3h[8:1],5/3h[8:1],5/4h[8:1],6/4h[8:1],
5/7h[8:1],6/7h[8:1],8/7h[8:1],1/8h[8:1],
{16}2,1,3,8,4,7,5,6,4,5,3,4,{8}2,1xh[8:5]/3x-8-4-7[8:3],
{4},,,8x/3x-7[8:1],
3b/6b,{16}8x/5h[8:1],{8},{16}1/5h[8:1],{8},3/4,{4}3/4-8[8:1],
2/4,{16}7x/3h[8:1],{8},{16}6/3h[8:1],{8},2/4,4/2,{16}1,2,
{4}3/5,{16}4/6h[8:1],{8},{16}5/6h[8:1],{8},8/7,{4}7/8-4[8:1],
1/8,{16}5x/3h[8:1],{8},{16}6/3h[8:1],{8},{16}7x,8x,{4}1x-5[8:1],
1b/4b,{16}6x/3h[8:1],{8},{16}7x/3h[8:1],{8},2/1,{4}2/1-5[8:1],
1/8,{16}4x/6h[8:1],{8},{16}3/6h[8:1],{8},2/5,{4}2/5,
{16}3x,4,3,4,2,5,2,5,1,6,1,6,8,7,8,7,
1x,2,3,4,5,6,7,8,1x/6x,5,4,3,{4}2x-6b[8:1],
{8}2b,{4},{8}7h[8:5],5,5,4,4,
3,{4},{8}3h[8:5],5,5,6,6,
{2}7>4[8:5],3<8[8:5],
{4},E2,E3,E4,
{8}Cf,{4},{8}2xh[8:5],8,8,7,7,
6,{4},{8}6h[8:5],4,4,3,3,
{2}2<5[8:5],6>1[8:5],
{8},,,8,7,6,{4}8-4[8:1]/5-7[8:1],
5/8-2[8:1],{8}3/8x,3,{4}3/1-7[8:1],{8}4/1,4,
{4}6/4-2[8:1],{8}4/5,5,{4}5/1-3[8:1],{8}1/6,6,
{4}4/6-8[8:1],{8}6/5,5,{4}5/1-7[8:1],{8}1/3,3,
{4}6/3-1[8:1],{8}3/5,5,{4}5/8-2[8:1],{8}8/4,4,
{4}4h[4:7],3,{8}2,2,,1,
,1,,B1,,E3,{4}B3,
,3h[8:11],4,{8}5,5,
,6,,E7,,C,{4},1b,
1,2,2,
3/4,3/4,5/4,4/5,
5/6-8-4[2:1],4,3,2h[4:5],
4,B5,E7,C,
{8}E1,{4},{8}8x,{4}8xh[2:1],{8}2,3,
{4}4,{8}7/3,6,2/5,3,4/6,7,
{4}5/8,{8}4/7,{16}3x,2x,{4}5/1x-5[8:1],{8}6,{16}7x,8x,
{4}1x-5b[8:1],{8}4,3x,{4}1x,4b/6b,
{16}2/1,{8},{16}1/8,{8},8/7,{16}2/4,{8},{16}3/5,{8},4/6,
{16}3/8,{8},{16}1/7,{8},4/5,{4}2-5[8:1]/6-1[8:1],2b/6b,
3x/8x-3[8:1],4x/8<5[8:1],{8}8/4-8[8:1],3,2/4,1,
7x-4[8:1],8-3[8:1],7,8,{4},{8}4b/6b,7,
8-4[8:1],2x,8-6[8:1],3,8-4[8:1],2,8,3,
2x/4x,1x/5x,6/8-4[8:1]*-3[8:1],7/1,{4}8x,{32}1x,2x,3x,4x,5x,6x,7x,8x,
{4}1bx-6[8:1],{8}1>4[8:1],4x,1/5-1[8:1],6,7/5,8-4[8:1],
,8/4,3,2-5[8:1],,2/5,6,7,
{4}8/4-2[8:1],{8}1/4,8,1/7-3[8:1],2,3/7,4xh[8:5],
,E5f,E6f,E7f,E8f,{16}2,1,8,7,6,5,
{4}4bx-1[8:1],{8}4/8-3[8:1],7,8x/6,5,3x/4x-8[8:1],2,
{4}4/1-4[8:1]*-6[8:1],1,,{8}3b/5b,2,
1-3[8:1],8,1-5[8:1],7,1-3[8:1],8,1,7,
4x/6x,3x/5x,4/2x-7[8:1]*-5[8:1],1x/3,{4}2x,{32}8x,7x,6x,5x,4x,3x,2x,1x,
{4}8bx-5[8:1],{8}8/4-7[8:1],3,4x/2-5[8:1],1,2/7x,6-1[8:1],
,6/4,3-5[8:1],2,8/3,{4},{8}7,
5/6,4,3/5,2,1x>4[8:1],8x,7x/1x,6xh[8:5],
,E5f,E4f,E3f,{2}E2f,
{4}2h[8:1]/8b-4[8:1],8/2h[8:1],3h[8:1]/5-1[8:1],5/3h[8:1],
8h[8:1]/2-5[8:1],2/8h[8:1],4/7h[8:1],{8}4/7h[8:1],3,
2-5[8:1],2,8-4[8:1],8,3-8[8:1],3,5-1[8:1],5,
,4,3qq5[8:3],8x,{2}8xh[4:1],
{4}6h[8:1]/4bx-8[8:1],4/6h[8:1],7h[8:1]/1-5[8:1],1/7h[8:1],
4h[8:1]/6-1[8:1],6/4h[8:1],8/3h[8:1],{8}8/3h[8:1],7,
6-1[8:1],6,4qq4pp4[2:1],4,,,,,,E1f,
E8f,E7f,{2}E6f,
{4}3-7[8:1]/4-8[8:1],3x/4x,{16}1,2,3,4,7,6,5,4,
2,3,4,5,6,7,8,1,6,5,4,3,2,1,8,7,
3b,4,5,6,7,8,1,2,7,6,5,4,3,2,1,8,
4,5,6,7,8,1,2,3,7x,8,1,2,3,4,5,6,
1bx,2,3,4,2x,3,4,5,7x,6,5,4,6x,5,4,3,
1x,2,3,4,5,6,7,8,6x,5,4,3,2,1,8,7,
3bx,2,1,8,7,6,5,4,7x,6,5,4,3,2,1,8,
{8}3/7,4/6,3/5,2/4,{4},1,
{2}1h[2:1],B1,
7h[2:1],B7,
3h[2:1],B3,
5h[2:1],B5,
{4}4/3h[8:1],5/3h[8:1],5/4h[8:1],6/4h[8:1],
5/7h[8:1],6/7h[8:1],8/7h[8:1],1/8h[8:1],
{16}2,1,3,8,4,7,5,6,4,5,3,4,{8}2,{16}1x,1x,
1x,1x,1x,1x,1x,1x,1x,1x,1x,1x,1x,1x,1x,1x,1x,1x,
{32}8x,7x,6x,5x,4x,3x,2x,1x,8x,7x,6x,5x,4x,3x,2x,1x,8x,7x,6x,5x,4x,3x,2x,1x,8x,7x,6x,5x,4x,3x,2x,1x,
{1}8b/Cf,
{32}1x,B1,C,B5,{8},{32}7x,B7,C,B3,{4},{8}1,8,7,
{1}6h[2:3]/3-7V51[2:1],
{2}2-4b[8:1],{4}5-2[8:1],5b/7b,
{8}8-4[8:1],2x,8-6[8:1],3,8-4[8:1],2,8,3,
2x/4x,1x/5x,6/8-4b[8:1]*-3b[8:1],7/1,{4}8x,{32}1x,2x,3x,4x,5x,6x,7x,8x,
{8}1bx-6[8:1],5x,1>4[8:1],4x,1/5-1[8:1],6,7/5,8-4[8:1],
2,8,3,2-5[8:1],5,2,6,7,
{4}8/4-2[8:1],{8}1/4,8,1/7-3[8:1],2,3/7,4xh[8:5],
,E5f,E6f,E7f,E8f,{16}2,1,8,7,6,5,
{8}4bx-1[8:1],1x,4/8-3[8:1],7,8x/6,5,3x/4x-8[8:1],2,
{4}4/1-4b[8:1]*-6b[8:1],1,{8}5-7[8:1],4,3b/5b,2,
1-3[8:1],8,1-5[8:1],7,1-3[8:1],8,1,7,
4x/6x,3x/5x,4/2-7[8:1]*-5[8:1],1/3,{4}2x,{32}8x,7x,6x,5x,4x,3x,2x,1x,
{8}8bx-5[8:1],5x,8/4-7[8:1],3,4x/2-5[8:1],1,2/7x,6-1[8:1],
4,6,3,2-5[8:1],1,2,8,7,
5/6<1[8:1],4,3/6,2,1x>4[8:1],8x,7x/1x,6xh[8:5],
,E5f,E4f,E3f,{2}E2f,
{1}7h[8:7]/2p6p2b[8:5],
{8},E2f,E1f,E8f,{2}E7f,
{4}7h[8:1]/1b-5[8:1],1/7h[8:1],6h[8:1]/4-8[8:1],4/6h[8:1],
7h[8:1]/1-3[8:1],1/7h[8:1],4/6h[8:1],{8}4/6h[8:1],3,
2-5[8:1],2,6-1[8:1],6,3-8[8:1],3,7-4[8:1],7,
,1-3-5v2[8:3],1,6x,{2}7x,
{4}2h[8:1]/8b-4[8:1],8/2h[8:1],3h[8:1]/5-1[8:1],5/3h[8:1],
2h[8:1]/8-6[8:1],8/2h[8:1],5/3h[8:1],{8}5/3h[8:1],6,
7,8,{4}4qq4[8:3]*pp4[8:3],{8},,,,,E6/Cfh[8:7],
E7,E8,{2}E1,
E
