&title=NEO SKY, NEO MAP!
&artist=虹咲学园学园偶像同好会
&first=-0.14
&des_5=kano
&lv_5=13+
&des=kano
&inote_5=(142){4},,,,,,,2/6h[4:1],
{12}4,4,5,3h[4:1],,,5,5,3,7h[4:1],,,8,
7,1,E5,E6,E7,{4}2h[4:1],4v5[4:1],
{16},,,,1h[16:3],,,4h[16:3],,,{8}3,{4}5h[4:1]/2>8[4:1],
,Cfh[4:1],{8},,1,4/2,
1,4/3,{16}5,4,{8}5,6,7/8-4[8:1],,8/1,
2,3,{16}E1,E8,E7,E6,{4}2h[4:1],{8}8,5/7,
8,5/6,{16}4,5,{8}4,3,2/1>6[4:1],{24},,,,,,A1,
D2,A2,D3,A3,D4,A4,D5,A5,8h[8:3]/D6,,,,,,,,,{8}1,5/2,
3<6[8:1],{16}8,8,,,{8}7,7h[4:1],5,4,4h[4:1],
8<5[8:1],8,,,2,2h[4:1],,,6/5,
4/7h[4:1],,5,6,4qq8[8:3],,8,
7,6,{4}5-1[8:1],5/4,{8}3h[4:1],1,
8,7-4[8:1],,7/3,2,1-4[8:1],,1/8,
7,6h[8:3],,,,6/4,{4}2V47[4:1],
{8}7V52[4:1],7,,8-4[8:1],,8<5[8:1],,3,
{4}2w6[8:1],A2f,{8},,8b/4b,5/7,
6>3[8:1],{16}1,1,,,{8}2<7[8:1],2,4,5<8[8:1],5,
2,2h[4:1],,,7-5[8:1]/8-5[8:1],1,,,3,
3h[4:1],,4,5,6>3[8:1],,2,
1,1,{4}8-5[8:1]*-3[8:1],{8}8,{16},,,,2,6,
{8}2,{16}5,4h[16:3],,,{8}3x,2,1,8/6,4/2,
5/3,1/8h[8:3],{16},,,,,,1,1,{8}7,4/2,
1,7/5h[4:1],,6-2[8:1],,6/8-5[8:1],,8,
1,2,{24}3,4,3,4,,,{4}5b/2b,6<3[8:3],
{8}B2,B3,,4,4,4V28[8:3],,7,
6,5,4,4,{4}5/3-7[8:1],{8}3,8-4[8:1],
1,8/2>5[8:1],,6,7,8h[4:1],,5-8[8:1]*-2[8:1],
4,,,7/3,{4}7/3,{8}4b/2b,7b/5b,
{4}8b/1b,{8}8<5[8:1],2,8,4-2[8:1],,5,
6,7-3[8:1],,7/8,1,2h[8:3],{24},,,,,,3,
4,{12}5h[24:7],{24},,,,,6,7,8h[24:7],,,,,,,5,4,3,2h[4:1],,,,,,8,
3/7,6/4,{4}5w1[8:1],{2}5<5[8:3]*>5[8:3],
{32},,,,,,,,E8,B7,B6,E6,E2,E2,B2,B3,E4,A7,E7,B6,B5,A3,E3,B2,B1,E1,E8,E7,E6,E5,E4,E3,
E2,D1,D8,D7,{8}A5/E6/D6f,2>5[8:1],{16}8,8,{8}2<7[8:1],6-2[8:1],2-6[8:1],6<4[4:1],
,4,{16}5-2[8:1],,,5-1[8:1],,,{8}5,{4}3b,
{8}8/2,{16}3,3,{8}7<4[8:1],{16}1,1,{8}7>2[8:1],3-7[8:1],7-3[8:1],3>5[4:1],
,5,{16}4-7[8:1],,,4-8[8:1],,,{8}4,{4}6b,
{8}7/1,7/1,{16}2,2,5,3,4,3,{8}5/2,{4}6h[8:1]/1h[8:1],
{8}8,3,{16}7,7,4,6,5,6,{8}4/7,{4}3h[4:1]/8h[4:1],
{16},,2,2,{8}7<4[8:1],{16}8,8,{8}7,1,2-5[8:1],{16}1,1,
{8}2,8,{16}8-5[8:1],,,8-3[8:1],,,{8}8,{4}4b,
5b/3b,{8}6<1[8:1],{16}4,4,{8}6>3[8:1],2-6[8:1],6-2[8:1],2>8[4:1],
Cf,8,{16}1-6[8:1],,,1-4[8:1],,,{8}1,{4}5b,
{8}4/6,{16}7,7,{8}3>8[8:1],{16}5,5,{8}3<6[8:1],7-3[8:1],3-7[8:1],7<1[4:1],
Cf,1,{16}8-3[8:1],,,8-5[8:1],,,{8}8,{4}4b,
{8}3/5,3/5,{16}6,6,1,7,8,7,{8}1/6,5/2,{16}3,4,
{8}3,6/1,{16}3,3,8,2,1,2,8/3,4/7,{8}6/5,{16}6,5,
{8}6,7/4,{16}2,8,3,5,4,6,3,7,Cf,8,2,5,
3,4,3,4,{8}5/2h[4:1],6,6,8/1,{16}7/5,7/5,,4/2,
{8}4/2,1-4-8-2[8:5]/2-6-1[8:5],,,,,,,,,6/5,
6,4/6,6,7/6,6,
{16}6/1,2,3/6,4,{8}5/6,6,6/E8/B8,6,6/E2/B2,B3/E4,
{4}7h[4:1],{8}2,2,2/6,2,{16}8/2,7,6,5,
{8}4/2,2/8-4[8:3],,2,2,2h[4:1],{32},,,,,,,,E5,
E6,{16}E7,,,{8}7/5,8,5h[4:1],{16}6,6,,,{8}5,
6/4,5/3,1-6[8:1],6-1[8:1],1-4[8:1],5,,,6,
6h[4:1],5,4,3,3h[4:1],,8,
7/4,6-2[8:1],,6/5,4,3,{4}1-5[8:1],
1/8,{8}8q1[4:5],E4,E5,E6,,3,
3,3,,4,4,4h[4:1],,,8,
8,{4}3/7-4[8:1],{8}7/2,1-5[8:1],,1/4w8[8:1],
,4,,6/2,{4}7V16[4:1]/3V52[4:1],7/3,
{8},,7b/3b,{16}4,4,{8}5<8[8:1],{16}2-6[8:1],1,,,{8}2,
7-3[8:1],8,7/1,1,6/2,5h[4:1]/3h[4:1],,,6/4,
5/7<2[16:5],,,1,1h[4:1],,8,
7,6/2-5[8:1],,2,8-4[8:1],8,{4}8<5[8:1]*>3[8:1],
{8},,6b/2b,{16}3,3,{8}5h[8:1],{16}4,5,{8}3,2,
1,8,7-4[8:1],1-5[8:1],7,1,,8,
8/4,7/3,2-5[8:1],8,2/6-1[8:1],7,6/4,3,
2h[2:1],1,,3,4,5,{24}6,7,8,1,2,3,
4,5,6,7,8,1,{4}2-5-8-3-7-2[1:1],{8},,,,,,,4,
{4}4-8[8:1],{8}4/3-1[8:1],2,
{4}3,{8}8,7,7,6/8<5[8:1],,1,
2,3h[4:1],,B7/B6,B2/B3,8-3[8:1],,8/7,
{4}6h[4:1],{8}5,6/5,{4}7/4,{16}2,2,{8}1,
3/8,4/7v4[8:1],,3,2,1v6[8:1],,8,
8,7h[4:1],{16},,,,3,4,5,6,7,8,1/5,4,
3,2,1,8,7/4,5,6,7,8,1,2/7,6,5,4,3,2,
{4}5h[8:3]/1p8[8:3],{16},,,,,,,,1,7,2,6,
3,3,5,4,6,6,2,8,1,8,2,7,{4}1b,
{16},,,,,,,,,,7/3,6/2,{8}5/1,{16}2/6V84[4:1],6/2,
,,{8}4-7[8:1],{16}3,2,{8}1,1,1v6[8:1],{16}6<3[4:1],,,5,
,,{8}5,{4}6<1[8:1],{8}6/5,{16}4,4,{8}3v8[8:1],{16}8V24[16:3],8,
,,7,6,{8}5,5,{16}4-7[8:1],3,2,1,4/8-3[8:1],,,8,
,,{8}6,{4}6>3[8:1],{8}2,1,8/7,{16}6,5,
{8}6,5/6,{4}4/5-8[8:1],{8}5,3,2/1,{16}3,4,
{8}3,4/3,{4}5/4v6[8:1],{8},7,8,{16}4,8,
{8}7/5,6/4,1/3,{16}2,4,{8}5/3,{16}7/2,6/3,5/4h[16:3],,,3,
2,1,8,7,{8}6b/2b,7/3,{4}8b/4b,{8}6/4,{16}7/3V15[4:1],3/7,
,,{8}5-2[8:1],{16}6,7,{8}8,8,8v3[8:1],{16}3>6[4:1],3,,4,
,,{8}4,3>8[8:1],{16}3,4,{8}3,{16}5,5,{8}6v1[8:1],{16}1V75[16:3],1,
,,2,3,{8}4,4,{16}5-2[8:1],6,7,8,5/1-6[8:1],,,1,
,,{8}3,{4}3<6[8:1],{8}7/3,8,1/2,{16}3,4,
{8}3,4/3,5/4>1[8:1],{16}6,6,{8}4,7,7/8,{16}6,5,
{8}6,{16}7v8[8:1],8,{8}8V64[16:3],{16}1,1,,,{8}2,3h[4:1],2,
2,{16}4,3,{8}4,2/5,6/1,{16}7,7,8,1,2,3,
{8}4h[4:1],6,{16}8,,,8,7,6,{8}5/2bh[8:17],,,,,{4}3,
,4,
,4,5,7h[2:1],
,5,{16}5,6,5,6,4h[16:3],,,3h[16:3],
,,{8}2h[8:1],{4}1-5>2[8:3],1/8,6h[8:1],
6h[8:1],4/5h[8:1],4/5h[8:1],{12}4/3,,4/2,
{6}4/2,{12}8,1h[6:1],,7,{4}7/1,{12}5/6,,4,
5,4,6,5,,8/3,{4}8/3,4h[6:1]/2h[6:1],
7h[6:1]/5h[6:1],8h[4:1]/1>7[4:1],{12},,,8,,8,
8,5,8,7/1,,2,2,4,2,3/1,,6,
6,4,6,7/5,,3,3,8,3,4/2h[4:1],,,5,
2,4,5/1,,,{6}7/3,{12}8/4,8h[4:1]/4h[4:1],,,,,,{4}6/3,
7/2,{12}8b/1b,,6/2,
,6,5,7/4,,2/1,,3,4,2/1-5[6:1],,8,
{6}1,{12}6,7V53[4:1],,,{4}7/2,1h[4:1],
{12}2,1,1,2/8,,,{4}7/4,{12}6/5,6/5,6/5,
7/4,7/4,7/4,8/3,8/3,8/3,{4}1b/2b,8-5[6:1],
{12},4,4,3-7[6:1],,,,1,1,8>3[6:1],,,,5,
5,5w1[8:1],{4},{16},,{24},{16}7/3,,,8/4,
7,6,5,1h[16:5],,,{8}4,4,{16}2,1,{8}3/8,6/4,
6/4,7h[4:1]/3h[4:1],{16},,,,E5,E4,E3,E2,{8}6b,{16}8-4[8:1],8,
{8}4,8,,5/3,6/2,8h[8:1]/1h[4:1],,8,
7/2,6/3,{16}1,2,3,4,5,6,7,8,{8}4/1-5[8:1],{16}3,3,
{8}1,8,7<4[8:1],{16}1,1,{8}7,8,{16}2,2,1,3,
4,2,{8}8,7/4,6/3,5/2,1/8,{16}7,3,6,3,
5,3,4,3,2,3,1,3,8,3,8,3,8,2,8,2,
8,2,8,1,7,1,7,1,7,1,2,3,4/5,6,7,8,
3,2,1,6,5,4,1,2,3,4,5,6,7,8,1,2,
{32}3,E4,E5,E6,E7,E8,E1,E2,E3,E4,E5,E6,E7,E8,E1,E7,{4}C,{8}4/7pp4[2:1],{16}3,3,
,,,,{4}3,2,{16}8/1,,,4/3,
,,{8}6/5,{4}8/4,{8}6/2,{16}3,4,{8}5/2qq5b[2:1],{16}6,6,
,,,,{4}6,7,{16}8b/1b,,,5b/6b,
,,{8}3b/4b,{4}1b/5b,{8}7/3,3/7,1-5[8:1],{16}3,4,
{8}1,8,{24}6x,5x,6x,5x,,,{8}6/4,7/3,8<5[8:1],{16}6,6,
{8}8,1,{24}3,4,3,4,,,{8}1b,{16}8,7,{8}2/6h[4:1],2,
2,{16}2,3,{8}4/6,7,7,{16}8/4,7/3,6/2>8[4:1],,,B7/B6/E7,
,,{8}B2/B3/E3,{4}Cfh[4:1],{8},,7/2,{16}6/4,6/4,
,,{8}3/5<8[8:1],{24}8z4[4:1],1,2,3,,,{8}4,2,{24}1b,2,{12}3,{24}2b,3,
{8}4,{24}3b,4,5,{4}8b,{32}7/1,6,5,4,3,2,1,8,{8}7/5,{16}3,4/2,
,,{8}6/4>1[8:1],{24}1s5[4:1],8,7,6,,,{8}5,7,{24}8b,7,{12}6,{24}7b,6,
{8}5,{24}6b,5,4,{4}1b,{8}5/2,5/2,{16}3,4,3,5,
{8}1,8/2,7v4[8:1],{16}1,1,,,{8}2,{16}7,5,6,4,
{8}8,{16}7/1,6/2,{8}5/3,{16}4/2,4/2,,,{8}8/6,{16}2,1,2,1,
4,1,2,1,6,1,2,1,5,1,2,1,{24}3,4,5,6,7,8,
1,2,3,4,5,6,7/1,2,3,4,5/2,3,4,5,6,1h[8:3],,,,,,,,,{8}3,
5,7/3,7/3,{24}8,1,8,1,,,{8}4/3,5/2,
{24}7,6,5,4/1,{48},,,,{16}3,4,,2,{8}1,7/8,6/4,3,
5/4,7,{16}8,8,6,6,4,4,2,2,1,1,{24}8,7,6,
{8}5,{16}3,3,4,1,,6h[16:3],,,{8}5,{4}7/4,
{8}5/3,{16}8/4,7/3,{4}2/6,{8}7/4,6/3,{4}1q5[8:1],
{8}1/8,7,6h[4:1],5,4,7/3,1,1,
{16}1,5,{8}1,1/6,1/5,1/4,1/3,{16}2,2h[4:1],,8,
7,6,{8}5,{4}4/3h[4:1],1b,{16}7,5,{8}7,
8/4,7/5,{16}4/8-4[8:1],3,2,1,{8}8,2h[4:1],,3,
4,5,{24}4,6,4,6,,,{4}7h[8:1]/3h[8:1],{16}2,4,{8}2,
1/5,2/4,{16}5/1-5[8:1],6,7,8,{8}1,7h[4:1],,6,
5,4,{24}5,3,5,3,,,{4}2h[8:1]/6h[8:1],{8}8,{24}2,3,4,
{8}7,{24}6,5,4,{8}2,{24}1,8,7,{8}5,{24}6,7,8,{8}2,{24}2b,3,4,
{8}6,{24}6b,7,8,{8}1,2/8,7/3,6/4,{16}5,6,5,6,
4,5,4,5,2,1,2,1,3,4,{8}5/2v7-1-3[8:3],,,,5-1[8:1],
,,,,3b/7,6b/5b,
2b/1b,7b/3b,{24}4,5,4,5,,,{8}7/2,{24}8b/1b,7/2,6/3,{4}5/4,
E
