&title=虫儿飞
&artist=经典儿歌
&first=-0.149
&des=
&des_5=DarkForest
&lv_5=12+
&inote_5=(103){4},6,2-6[8:3],{8}B3,B4,
{4}B5,8h[4:1],1h[2:1],B6,
B4,3,7-3[8:3],{8}B8,B1,
{4}B2,4h[4:1],5h[2:1],{8}B8,B6,
{4}B4,8<4[4:1],4q8[4:1],8<4[4:1],
4q8[4:1],8<4[8:5]*>4[8:5],,,,1>5[4:1],
5p1[4:1],1>5[4:1],
5p1[4:1],1>5[8:5]*<5[8:5],{8},,,,,,4qq1[8:5]/6pp1[8:5],
2/8,,,,,,,3qq8[8:5]/5pp8[8:5],
1/7,,,,,,,2-5[4:1],
6-8[8:3],{2}5-1[4:1],
{8},3-6[8:11],{4}3/7-2[4:5],,,,,,,E7/E3,
7-2[4:1],{8}2-5[4:1],4,{4}5-8[4:1],
8-2[4:1],2-4[8:5],{2}7-5[8:3],
{4},4-1[4:1],{8}1-5[4:1],7,{4}5-8[4:1],
8-4[4:1],4>1[8:5],{2}5<8[8:3],
{8},,7pp2[8:5]/6p3[8:5],5/8,,,,,,,2qq7[8:5]/3q6[8:5],
1/4,,,,,,,7-4[4:1],
3-1[8:3],{2}4-8[4:1],
{8},6-3[8:7],{4}6/2-7[4:3],,,,,E1/E5,
{16}5,6x,7x,8x,
5,4x,3x,2x,{4}5xqq2[8:3]*pp8[8:3],{8},,,,1>3[8:1],
3-7[8:1],7<5[8:1],5-1[4:1],,,,,8-4[8:1],
5-7[8:1]/4-8[8:1],,,,1-5[8:1],{4}5-1[8:1]/4-2[8:1],
,3qq1[8:3]/6pp8[8:3],{8},,,,2,
4<6[8:1],6-2[4:1],4-1[4:1],,,,,6,
8>2[8:1],2-6[4:1],8-5[8:3],,,,,,,1>3[8:1],
3-7[8:1],7>1[8:1],1-5[4:1],,,,,8h[4:1]/2-6[8:1],
1,,,1<8-4<5[4:3]/7<6-2>3[4:3],3/5,
{1}1b/7b,
{4}2h[4:1],{8}8-4[8:1],7,,,{4}B7/B3,
B1/B5,5-1[4:1],{8}2,3,{4}4h[4:1],
5h[4:1],{8}1-5[8:1],2,,,E8,B6,
{4}E5,7-3[4:1],3-7[4:1],{8}1,2,
{4}3,2-6[4:1],6-2[4:1],{8}8,7,
{4}6,{8}8-4[4:3],1,2,3,{16},5h[16:7],,,,,,,,,,,,1h[16:11]/5-8[16:7],
,,,,,,,,,,,,,,{2}1w5[4:11],
E
