&title=3rd Avenue
&artist=Sound Souler
&first=1.06
&des=MMFC13-48
&lv_7=扫
&inote_7=(130)
{16}2/6h[8:1],,,2,3hx[8:1]/7x,,8,,2/6h[8:1],,,2,3hx[8:1]/7x,,8,,2/6h[8:1],,,2,3hx[8:1]/7x,,8,,2/6h[8:1],,,2,3hx[8:1]/7x,,8,,
{16}7/3h[8:1],,,7,6hx[8:1]/2x,,1,,7/3h[8:1],,,7,6hx[8:1]/2x,,1,,7/3h[8:1],,,7,6hx[8:1]/2x,,1,,7/3h[8:1],,,7,6hx[8:1]/2x,,1,,
{16}2/5h[8:1],,,2,3hx[8:1]/6x,,7,,2,5,3h[8:1],,6x,,7,,1/6h[8:1],,,1,2hx[8:1]/5x,,6,,1,5,2h[8:1],,5x,,6,,7/4h[8:1],,,7,6hx[8:1]/3x,,2,,7,4,6h[8:1],,3,,2/5,,3/4,,,5/6,,,2/4,,,8,5x/7hx[8:1],,{4}1b,
{16}2,3hx[8:1]/4x,6,,2,3hx[8:1]/4x,7,,2,3hx[8:1]/4x,8,,2,3hx[8:1]/4x,1,,2,3hx[8:1]/4x,8,,2,3hx[8:1]/4x,7,,2,3hx[8:1]/4x,6,,5,,4,,7,6hx[8:1]/5x,3,,7,6hx[8:1]/5x,2,,7,6hx[8:1]/5x,1,,7,6hx[8:1]/5x,8,,7,6hx[8:1]/5x,1,,7,6hx[8:1]/5x,2,,7,6hx[8:1]/5x,3,,4,,5/3,,
{16}2,8x/3hx[8:1],7,,2,8x/3hx[8:1],6,,2,8x/3hx[8:1],5,,2,8x/3hx[8:1],4,,2,8x/3hx[8:1],5,,2,8x/3hx[8:1],6,,2,8x/3hx[8:1],7,,8,,1,,7,1x/6hx[8:1],2,,7,1x/6hx[8:1],3,,7,1x/6hx[8:1],4,,7,1x/6hx[8:1],5,,7,1x/6hx[8:1],4,,7,1x/6hx[8:1],3,,7,1x/6hx[8:1],2,,1,,8/2,,
{16}7,6hx[8:1]/1-3[8:1],,,7,8hx[8:1],,,7,6hx[8:1]/1-5[8:1],,,7,8hx[8:1],,,7,6hx[8:1]/1-3[8:1],,,7,8hx[8:1],,,7,6hx[8:1]/1-5[8:1],,,7,8hx[8:1],,,2,3hx[8:1]/8-6[8:1],,,2,1hx[8:1],,,2,3hx[8:1]/8-4[8:1],,,2,1hx[8:1],,,2,3hx[8:1]/8-6[8:1],,,2,1hx[8:1],,,2,3hx[8:1]/8-4[8:1],,,2,1hx[8:1],,,
{8}2/5,2/5,3/6,3/6,4/7,4/7,5/8,5/8,7/4,7/4,6/3,6/3,5/2,5/2,4/1,4/1,{16}2,3/8hx[8:1],4,,7,6/1hx[8:1],5,,2,3/8hx[8:1],4,,7,6/1hx[8:1],5,,{1}2bz6[2:1]/4bz8[2:1],
{16}2/5h[4:1],,,,3,4hx[8:1]/7,8,,6,5hx[8:1]/2x,1,,3,4hx[8:1]/7,8,,6,5hx[8:1]/2x,1,,3,4hx[8:1]/7,8,,6-1[8:1],5x/2x,1,,6b/B3/B4/E5,,,,2h[4:1]/8,,,,6,5hx[8:1]/1x,8,,2,3hx[8:1]/7x,8,,6,5hx[8:1]/1x,8,,2,3hx[8:1]/7x,8,,6,5hx[8:1]/1x,8,,2-5[8:1],3x/7x,8h[16:1],,{4}2b,
{16}7b/4h[4:1],,,,6,5hx[8:1]/2,1,,3,4hx[8:1]/7x,8,,6,5hx[8:1]/2,1,,3,4hx[8:1]/7x,8,,6,5hx[8:1]/2,1,,3-8[8:1],4x/7x,8,,3b/B6/B5/E5,,,,7h[4:1]/1,,,,3,4hx[8:1]/8x,1,,7,6hx[8:1]/2x,1,,3,4hx[8:1]/8x,1,,{8}7,7,1/6pp1[8:3],1/6,2-5[8:1],2,2b,,
{16}8/4h[4:1],,,,7,6hx[8:1]/2x,1,,2,3hx[8:1]/7x,8,,7,6hx[8:1]/2x,1,,2,3hx[8:1]/7x,8,,7,6hx[8:1]/2x,1,,2-7[8:1],3x/7x,8,,2b/E6/B5/B4,,,,1/6h[4:1],,,,3,4hx[8:1]/7x,8,,5,4hx[8:1]/1x,8,,3,4hx[8:1]/7x,8,,5,4hx[8:1]/1x,8,,3,4hx[8:1]/7x,8,,5<8[8:1],4x/1x,8h[16:1],,{4}5b,
{16}1/5h[4:1],,,,2,3hx[8:1]/7x,8,,7,6hx[8:1]/2x,1,,2,3hx[8:1]/7x,8,,7,6hx[8:1]/2x,1,,2,3hx[8:1]/7x,8,,7-2[8:1],6x/2x,1,,7b/E4/B4/B5,,,,8/3h[4:1],,,,6,5hx[8:1]/2x,1,,4,5hx[8:1]/8x,1,,6,5hx[8:1]/2x,1,,{8}2,2,8/3qq8[8:3],8/3,7-4[8:1],7,7b,,
{1}1/5<4[2:7],,,,4>5[2:7],,,,
{16}E8,E7/4hx[8:1],,,E2,E3/5hx[8:1],,,E8,E7/4hx[8:1],,,E2,E3/5hx[8:1],,,E8,E7/4hx[8:1],,,E2,E3/5hx[8:1],,,E8,E7/4hx[8:1],,,E2,E3/5hx[8:1],,,E7,E6/3hx[8:1],,,E3,E4/6hx[8:1],,,E7,E6/3hx[8:1],,,E3,E4/6hx[8:1],,,E7,E6/3hx[8:1],,,E3,E4/6hx[8:1],,,E7,E6/3hx[8:1],,,E3,E4/6hx[8:1],,,E6,E5/2hx[8:1],,,E4,E5/7hx[8:1],,,E6,E5/2hx[8:1],,,E4,E5/7hx[8:1],,,E6,E5/2hx[8:1],,,E4,E5/7hx[8:1],,,E6,E5/2hx[8:1],,,E4,E5/7hx[8:1],,,6,1hx[8:1]/5x,,,3,8hx[8:1]/4x,,,6,1hx[8:1]/5x,,,3,8hx[8:1]/4x,,,6,1hx[8:1]/5x,,,3,8hx[8:1]/4x,,,6,1hx[8:1]/5x,,,3,8hx[8:1]/4x,,,
{16}7,6hx[8:1]/1,,2,3hx[8:1]/8,,7,,6,5hx[8:1]/1x,2,,3/4,,3/4,,7,6hx[8:1]/1,,2,3hx[8:1]/8,,7,,6,5hx[8:1]/1x,2,,3/4,,3/4,,2,3hx[8:1]/8,,7,6hx[8:1]/1,,2,,3,4hx[8:1]/8x,7,,6/5,,6/5,,2,3hx[8:1]/8,,7,6hx[8:1]/1,,2,,3,4hx[8:1]/8x,7,,6/5,,6/5,,
{8}7/8,7/8,1/6,1/6,2/5,2/5,3/4,3/4,1/2,1/2,3/8,3/8,4/7,4/7,5/6,5/6,{16}3,4hx[8:1]/2x,1,,7,6x/8hx[8:1],5,,3,4hx[8:1]/2x,1,,7,6x/8hx[8:1],5,,
{2}4b^5z1^8[2:1]/2b^3z7^6[2:1],,
{16}2/5h[4:1],,,,3,4hx[8:1]/7x,1,,3,2hx[8:1]/7x,5,,3,4hx[8:1]/7x,1,,3,2hx[8:1]/7x,5,,3,4hx[8:1]/7x,1,,3-6[8:1],2x/7x,5,,3b/E8/B8/B1,,,,4h[4:1]/8,,,,7,6hx[8:1]/3x,1,,7,8hx[8:1]/3x,5,,7,6hx[8:1]/3x,1,,7,8hx[8:1]/3x,5,,7,6hx[8:1]/3x,1,,7-4[8:1],8x/3x,5h[16:1],,7b,,,,7/4h[4:1],,,,6,5hx[8:1]/2x,8,,6,7hx[8:1]/2x,4,,6,5hx[8:1]/2x,8,,6,7hx[8:1]/2x,4,,6,5hx[8:1]/2x,8,,6-3[8:1],7x/2x,4,,6b/E2/B1/B8,,,,5h[4:1]/1,,,,2,3hx[8:1]/6x,8,,2,1hx[8:1]/6x,4,,2,3hx[8:1]/6x,8,,{8}6/2,6/2,4qq8[8:3]/8,4/8,7-4[8:1],7,7b,,
{16}2/6h[4:1],,,,1,5x/8hx[8:1],4,,1,5x/2hx[8:1],7,,1,5x/8hx[8:1],4,,1,5x/2hx[8:1],7,,1,5x/8hx[8:1],4,,1w5[8:1],5x/2x,7,,1b,,,,3h[4:1]/7,,,,6,5hx[8:1]/2x,8,,6,7hx[8:1]/2x,4,,6,5hx[8:1]/2x,8,,6,7hx[8:1]/2x,4,,6,5hx[8:1]/2x,8,,6-1[8:1]*-2[8:1],7x/2x,4h[16:1],,6b,,,,7/3h[4:1],,,,8,4x/1hx[8:1],5,,8,4x/7hx[8:1],2,,8,4x/1hx[8:1],5,,8,4x/7hx[8:1],2,,8,4x/1hx[8:1],5,,8w4[8:1],4x/7x,2,,8b,,,,6h[4:1]/2,,,,3,4hx[8:1]/7x,1,,3,2hx[8:1]/7x,5,,3,4hx[8:1]/7x,1,,{8}3/7,3/7,5pp1[8:3]/1,5/1,2-5[8:1],2,2b,,8b,
