&title=オノマトペメガネ
&artist=ねこぼーろ/初音ミク
&first=0.01
&des=ひとーつ ふたーつ
&lv_5=12
&inote_5=(127)
{4},,,,
{4}4h[2:1],,5h[2:1],,
{4}3h[2:1],,4h[2:1],,
{4}5h[2:1],,6h[2:1],,
{4}4h[2:1],,5h[2:1],,
{8}3h[2:1],4,5,6,6h[2:1],5,4,3,
{8}3h[2:1],4,5,6,6h[2:1],5,4,3,
{8}2h[2:1],3,4,5,7h[2:1],6,5,4,
{8}2h[2:1],4,5,6,7h[4:1],5,4,,
{16}5/6,,3,4,2,,6,5,7pp2[8:7],,,,,,4,,
{8}5,,6^3[8:1],,6,,,,
{16}4/3,,6,5,7,,3,4,2qq7[8:7],,,,,,5,,
{8}4,,3^6[8:1],,3,,,,
{16}5/7,,3,4,1,,6,5,8q1[8:7],,,,,,4,,
{8}5,,6^3[8:1],,6,,,2,
{8}2h[8:3],,,4,4h[8:3],,,5,
{8}5h[8:3],,,7,7,,,2^5[8:1],
{8}2h[4:1],,,6^1[8:1],6h[4:1],,,2,
{8}2,3,4<1[4:1],5,6h[4:1],,,2,
{4}2^7[4:1],7^4[4:1],4^1[4:1],1q4[2:1],
{4}8p4[4:1],,,{8},7^4[8:1],
{8}7h[4:1],,,3^8[8:1],3h[4:1],,,7,
{8}7,5/7,4>8[4:1]/6,,4/2h[4:1],,,7,
{4}7^2[4:1],2^5[4:1],5^8[4:1],8p5[2:1],
{4}1q5[4:1],,,{8},,
{8}2q7[8:2],,4,5,6^3[8:1],,6,,
{8}1p4[8:2],,6,7,8^5[8:1],,8,,
{4}2-5[4:1],5-8[4:1],8-3[4:1],3-6[4:1],
{8}6p3[2:1],7>3[8:3],,,,,,,
{8}7s3[8:2],,3,2,1-5[8:1],,1,,
{8}8s4[8:2],,4,3,2-6[8:1],,2,,
{4}7-4[4:1],4-1[4:1],1-6[4:1],6-3[4:1],
{8}3q6[2:1],2<6[8:3],,,,,,,
{8}7v4[8:1],7,3-7[8:1],3,8-4[8:1],,3-7[8:1],3,
{8}1v4[8:1],1,3-7[8:1],3,2-7[8:1]*-5[8:1],2,,,
{8}8-4[8:1]/4,3,2,1,5/8-4[8:1],6,7,8,
{8}1-5[8:1]/5,4,3,2,1-3[8:1]/4-8[8:1],,1/4,,
{8}4-8[8:1],,4,,7/1-5[8:1]*-5[8:1],,1/3,,
{8}6V84[4:1]/4,3,2,1,8v2[8:1]*v6[8:1],,,,
{8}7^5[8:1],7,8p4[8:1],8,1q5[8:1],1,2^4[8:1],2,
{8}1q6[8:1],1,8p3[8:1],8,7,,6-3[8:1]/2-7[8:1],,
{4}6b/2b<3[2:1],,,,
{4}3h[2:1],,5h[2:1],,
{4}2h[2:1],,4h[2:1],,
{4}1h[2:1],,3h[8:5],,
{4}8h[8:3],3h[8:3],1h[8:3],4h[8:3],
{4}2h[8:3],5h[8:3],3h[8:3],4h[8:3],
{4}6h[8:3],5h[8:3],7h[8:3],4h[8:3],
{4}8h[8:3],3h[8:3],7h[8:3],{16}3,3,3,3,
{4}3^6[2:1],7,8,1,
{4}2^7[2:1],6,5,4,
{4}3q8[2:1],8,1,2,
{4}3^8[2:1],7,6,5,
{4}4q7[2:1],8,1,2,
{4}3p8[2:1],7,6,5,
{4}4-8[2:3],3h[16:3],5h[16:3],2h[16:3],
{4}6h[16:3],1h[16:3],7h[16:3],,
{8}6h[2:1]/5,,8,,3h[2:1],,1,,
{8}6h[2:1],,7,,3h[2:1],,2,,
{8}6h[2:1],,8,1,3h[2:1],,1,8,
{8}6h[2:1],,7,8,3h[4:1],,2,1,
{16}5/7,,3,4,2-6[8:1],,1/7,,2/8-3[8:1]*-5[8:1],,,,8,,,,
{16}4/2,,6,5,7w3[8:1],,8/1,,7,,,,,,1,,
{8}1h[4:1],3,3h[4:1],5,5h[4:1],7,7h[8:1],8,
{8}8h[8:1],1h[8:1],2h[8:1],3h[8:1],4bw8[8:1],,,,
{8}6v4[8:1],6,3-7[8:1],3,8v6[8:1],8,3-7[8:1],3,
{8}2v4[8:1],2,3-7[8:1],3,3-8[8:1]*-6[8:1],,,,
{8}1-5[8:1]/5,6,7,8,1-5[8:1]/4,3,2,1,
{8}8-4[8:1]/5,6,7,8,1v6[8:1]/5v2[8:1],,1/5,,
{8}5-1[8:1],6,7h[8:1],,6/8-4[8:1]*-4[8:1],1/7,8/2h[8:1],,
{8}3V15[4:1]/5,6,7,8,1v6[8:1]*v4[8:1],,,,
{8}7-3[8:1],7,8-4[8:1],8,1-5[8:1],1,2-6[8:1],2,
{8}1-5[8:1],1,8-4[8:1],8,7,,7-2[8:1]/3-6[8:1],,
{4}7b>6[2:1]/3b,,,,
{8}7^4[8:1]/8,3,2,1,7^4[8:1]/8,1,2,3,
{8}2^5[8:1]/1,6,7,8,2^5[8:1]/1,8,7,6,
{8}3-6[8:1],3,7-2[8:1],7,5,,1-6[8:1]/5-2[8:1],,
{4}1b<2[2:1]/5b,,,,
{8}7V51[8:1]/1,4,3,2,7V58[8:1]/8,1,2,3,
{8}2V48[8:1]/8,5,6,7,2V41[8:1]/1,8,7,6,
{8}6/8,7,1/3,2,1/6,7,3/8,,
{1}1b,
E
