&title=K.Moe VIP
&artist=ZxNX
&first=-0.85
&des=Blackbriar
&lv_5=14
&des_5=Blackbriar
&inote_5=
(175){4},,,,{1}1b>6[1:1],
6pp2[1:1],
2p8[1:1],
8<3[1:1],
3s7[1:1],
7V15[1:1],
5p2[1:1],
{4}7,6,5,8b/1b,
{1}7bh[1:1]/2b<2[2:1],
8-6-4-2-8[2:5]*<8[2:5],
,,2bh[1:1]/7b>7[2:1],
1-5-3-7-1[2:5]*<1[2:5],
,,7bh[1:1]/2bqq5[2:1],
3>3[2:5]*pp5pp7pp1pp3[2:5],
,,2bh[1:1]/7bpp4[2:1],
6-3[2:1]*v1[2:1],
6bpp4[2:1]/3bqq5[2:1],
{4}6b/1b,8b/3b,{2}2b/7bv6[8:1],
{4}8b/1b-5[8:1],1/2,1b/8b-4[8:1],8/7,
7b/1bp5[8:1],1/3,2b/8bq4[8:1],8/6,
6b/1b<6[8:1],1/2,3b/8b>3[8:1],8/7,
5b/4b-8[8:1],4/3,4b/5b-1[8:1],5/6,
{8}6b/2b-6[8:1],2,2/8,8,3b/7b-3[8:1],7,7/2,2,
8b/1b>4[8:1],1,1/7,7,1b/8b<5[8:1],8,8/2,2,
{12}1b,1,1,7,7,7,3b,3,3,5<4[1:1],5,5,
{1}5bh[4:3],
{4}8b,{16}3,4,3,4,{8}5/2,5/2,{16}6,5,6,5,
{8}7/4,7/4,{16}3,2,1,8,5,6,7,8,{4}1b-5[8:1],
1b,{8}6h[8:3],2h[4:1],,,3h[8:3],7h[4:1],
,,1,{16}1,8,{8}1,{16}8,1,{8}7/2,6,
4b/5b,6b/3b,{16}4,5,4,5,{8}6/3h[8:3],,,7h[4:1],
,1h[8:3],,,{4}8b-4[8:1],8b,
{8}5/6b,{16}4,3,2,1,,,4/3b,5,6,7,,,{8}1b/8,
{16},,2/1b,3,4,5,,,{8}5/6,4/5,3/4,5/4,
6b/3b,{16}7,4,7,4,{8}6/5,5/6,{16}2,5,2,5,{8}4/3,
4/3,{16}6,5,6,5,{8}6,{16}4,3,2,1,{4}8b-4[8:1],
8b,{16}1,8,1,8,2,7,2,7,3,6,3,6,
4,5,4,5,3,6,4,5,4,5,{8}6/3,7/2,8/1,
2b-4[8:1],2b,,,8b-6[8:1],,,3b-1[8:1],
,5b-7[8:1],,,{4}1bw5[8:1],1b,
7b/2b,{16}4,6,4,6,{8}4b-1[8:1],,,8b-5[8:1],
,3b-6[8:1],,,7,7,8,8,
{4}1b-5[8:1],2b-6[8:1],3b-7[8:1],{8}4b-8[8:1],4b,
,5b-1[8:1],,6b-2[16:1],{4}6b,7b,
{8}1b/2,2,8b/7,7,1b/2,3,8b/7,6,
{16}1b,5,1b,5,1b,5,1b,5,1b,5,1b,5,1b,5,1b,5,
{4}1bw5[1.0286##0.1714],1,1,1b,
7/3,{8}6/2,3,{4}4/8,{8}7/3,6,
{4}5/1>4[8:1],5<8[8:1],{8}1,2,3,4,
5/3,2,6/4,7,1b,8b,{16}1b,8b,1b,8b,
{4}2>5[8:1],6<1[8:1],{8}4,3,2,1,
{4}8/7,{8}2/6,3,{4}4/5,{8}6/8,7,
{4}1/8,{8}4/3,2,6/5,7,2/8,1,
1b,{16}1b,1b,{8}1b,1bh[8:1],{32}7b,6,5,4,{8}1bh[8:1],{32}7b,6,5,4,,,,,{4}2-6[8:1],
2,{8}8-4[8:1],8,,3<6[8:1],
,,7,8,{4}1-5[8:1],{8}8,7,
{4}6,6<1[8:1],{8}5,4,3,2,
{4}1-4[8:1],1-6[8:1],1-5[8:1],1b,
7V53[4:1],3V17[4:1],{8}5,4,3,2h[8:3],
,,8-5[8:1],1,{4}2-5[8:1],{8}2<2[2:1],7h[8:5],
,,,,,6,5,4,
{4}3/6,3/6,{6}2/7,2/7,{48}1/8,,,,,1/8,{4},,,{24},{4}4b,
{16}4b,8b,4b,8b,3b,7b,3b,7b,2b,6b,2b,6b,{8}1b,{32}1b,2,3,4,
{8}7b,7b,3b,3b,{16}6b,5b,7b,4b,6b,5b,7b,4b,
{8}8bh[8:1],{32}2b,3,4,5,{8}7bh[8:1],{32}1b,2,3,4,{8}6bh[8:1],{32}8b,1,2,3,{8}5bh[8:1],{32}7b,8,1,2,
{1}6bz2[2:1],
1bs5[2:1],
8b-6-2-4[2:1]*-6-2-4[2:1],
2b-5-1-6[2:1]*-5-1-6[2:1],
{4}5/1,2,{48}3,7,,,,,{8}3,,5,
,,6/2,6,{4}3,{8}8/4,4,
{4}1/5,{48}7,3,,,,,,,,,,,{8}4,4,6,6,
2,2,8,8,1,1,6,6,
{4}5/4,4,{48}6,4,,,,,{8}3,2,1/8,
,,8,7,{4}6,{48}2,5,,,,,{8}5/2,
,,2,1,2,8,2,7,
2,6,2,5,2,4,2,3,
{4}2b<2[4:15],2,{8},3,,,{4}4h[8:3],
{8},,,,5,6,
7h[4:1],,,,,7,,,{4}8,
8,1,1,
7>7[4:15],7,{8},6,,,{4}5h[8:3],
{8},,,,4,3,
2h[4:1],,,,,2,,,{4}1,
2,3,4b,
E
