&title=Breach of Faith
&artist=Supire feat.eili
&first=0.03
&des=NekomaeP
&lv_5=14
&inote_5=(172)
{1},
{2}5x<4[4:59]/4x,,,E8,Ch[2:2],,,{32},,E3,,,,,,,,,,,,,,{2}2h[2:1],,1h[2:1],{4},B4,B6,,{8},E2,,,{2}E6,7,8-5[4:3],,,C,5-1[4:3],,,E8,2-6[4:3],,,{8}B5,,,,{2}8pp5[4:5],,,C,
{16}1x,,,,2/5,,3,4,3,,2/5,,3,5,4,,7,5,6,5,8,4,5,4,8,7,6,5,4/8,1,2,3,
{16}4/8x,,,,7/4,,6,5,6,,7/4,,6,4,5,,2,4,3,4,1,5,4,5,1,2,3,4,5/1,8,7,6,
{16}1x/5,,,,2/5,,3,4,3,,2/5,,3,5,4,,7,5,6,5,8,4,5,4,8,7,6,5,4/8,1,2,3,
{16}8x/4x,,8x/4x,,2x/6x,,2x/6x,,1/8,,2,4,3,7,5,6,{2}1x,C,
{16}1x/8x,,,,3h[8:1]/5h[8:1],,,,,,7h[8:1]/4h[8:1],,,,,,
{16}1x/5x,,2,4,3,6,5,,7,5,6,3,4,,25,,1,2,3,4,5/1,6,7,8,1-4[8:1]/5-8[8:1],,26,,15,,,,
{16}3x/7x,,6,4,5-1[8:1],,2,,5x,,2,3,4,,8,,6,5,6,,7,4,5,2,8,7,6,5,4/8,3,2,1,8-5[8:1]/4-1[8:1],,73,,84,,,,
{16}2x/6x,,3,5,4,,26,,7x<4[8:1],8,6,8,7,,1,,2,4,2,,4,3,5,4,7,5,6,5,8,4,5,4,1,8,7,6,5/1,2,3,4,
{16}5-2[8:1]/1,,,,5,,8-4[8:1],,,,8,,1,,,,
{16}2x/6x,,4,5,2,4,3,,5,4,7,5,6,,18,,7,6,5,4,3/7p4[8:3],2,1,8,7/3>8[8:1],,,,3,,,,
{16}2x/6x,,3,5,4-8[8:1],,7,,4x,,7,6,5,,1,,3,4,3,,2,6,4,8,2,3,4,5,6/2q5[8:3],7,8,1,2/6<1[8:1],,,,6,,,,
{16}7x/3x,,6,4,5,,73,,2x>5[8:1],1,3,1,2,,8,,7,5,7,,5,6,4,5,2,4,3,4,1,5,4,5,8,1,2,3,4/8,7,6,5,
{16}4-7[8:1]/8x,,,,2-5[8:1]/4,,,,6<1[8:1]/2,,,,2-4[8:1]/6,,,,
{16}2/7-5[8:1],,,,1-5[8:1]/7,,,,1>4[8:1]/8,,,8,1,,{24}6,7,8,
{16}5-2[8:1]/1,,,,7-4[8:1]/5,,,,3>8[8:1]/7,,,,7-5[8:1]/3,,,,
{16}7/2-4[8:1],,,,8-4[8:1]/2,,,,8<5[8:1]/1,,,1,8,,{24}3,2,1,
{16}8-4[8:1]/4,,,,8/6-2[8:1],,,,6/3-5[8:1],,,,3/7-4[8:1],,,,
{16}1-3[8:1]/7,,,,1/8-4[8:1],,,,8>3[8:1]/6,,,5,8,,{24}6,7,8,
{16}1-5[8:1]/5,,,,1/3-7[8:1],,,,3/6-4[8:1],,,,6/2-5[8:1],,,,
{16}8-6[8:1]/2,,,,8/1-5[8:1],,,,1<6[8:1]/3,,,4,1,,{24}3,2,1,
{16}8-4[8:1],,6,5,8,,2,,2>5[8:1],,1,8,2,,,,
{16}1-5[8:1],,3,4,1,,7,,7<4[8:1],,8,1,7,,,,
{16}1/2-5[8:1],,3,4,2,,8,,8/7-4[8:1],,6,5,7,,1,,
{16}3,4,2,8,1,6,5,7,1h[8:1],,{32}8,7,6,5,{16}4/3,,2,,
{16}1>4[4:3],,,,6,,,,7,,,,8,,,,8<5[4:3],,,,3,,,,2,,,,1,,,,{16}1-5[4:3],,,,5,,,,6,,,,7,,,,
{16}8x,,3,4,2,,1x/8x,,6,5,7,,8xh[8:1],,{32}1,2,3,4,
{4}5b/6b>7[4:25],,,,,,{32}E6,,,,,,,,{4},E3,,,,{16}E7,E8,E1,E2,E3,E4,E5,E6,{4}E7,,1-5[4:3],,,,,,,,3pp1[4:5],,,,
{4}Ch[1:1],,,,
{8}1-5[8:1],,1/8,,7,5,7,,8-4[8:1],,1/8,,2,4,2,,
{8}7-1[8:1],,7/5,,2-4[8:1],3,2,,5-7[8:1],,3/5,,5-1[8:1]/4,4,3,,
{8}24,8,57,1,35,2,46,7,48,21,35,78,15,43,28
,65,
{16}1,4,3,7,5,6,2,4,3,8,5,6,3,7,1,6,4h[1:0],8h[1:0],2h[1:0],5h[1:0],4h[1:0],7h[1:0],1h[1:0],5h[1:0],2h[64:1],7h[64:1],4h[64:1],6h[64:1],1h[64:1],5h[64:1],3h[64:1],7h[64:1],
{4}1b-5b[4:13],,,,,,,,,,,,,,B7,,
{16}2xh[8:2]/6xh[8:2],,,,,,,,2-5[8:1]/6,,3,4,2,,,,
{16}8,7,26,,1-5[8:1],8,2,,1/6>8[4:1],,7,,8-4[8:1]*-3[8:1],,,,
{16},,,,6,,6,5,8<2[4:1],,1,,2-5[8:1]*-6[8:1],,,,
{16},,,,1,,3,4,2-5[8:1],,1/5-1[8:1],,,,,,
{16}8V64[4:1],,7V53[172.1#4:1],,4V28[4:1],,3V17[4:1],,,,,,,,,,
{16}3-8[8:1],4,2,,3,,6-1[8:1],5,7,,,,Ch[8:1],,,,
{16}6,5,7,3,4,2,8,,C,,,,1,5,3,8,4,6,2,,C,,,,8h[2:1],,E8,E1,E2,E3,E4,E5,
{16}E6,,,,8,,,,7-4[8:1]/3,,6,5,7,,,,
{16}1,2,73,,8-4[8:1],1,7,,8/3<1[4:1],,2,,1-5[8:1]*-6[8:1],,,,
{16},,,,3,,3,4,1>7[4:1],,8,,7-4[8:1]*-3[8:1],,8,,
{16},,,,8,,6,5,7-4[8:1],,8/4-8[8:1],,,,,,
{16}1V35[4:1],,2V46[172.1#4:1],,5V71[4:1],,6V82[4:1],,,,,,,,,,
{16}6-1[8:1],5,7,,,,3-8[8:1],4,2,,3,,Ch[8:1],,,,1xh[4:1]/7xh[4:1],,,,,,,,2xh[4:1]/5xh[4:1],,,,,,,,
{16}8/7,,6,5,4/3,,2h[8:5],,8,,8,,8,,8,,
{16},,,,1,,,,5h[4:1]/6,,,,8,,,,4h[4:1]/3,,,,1-5[8:1],,,,1,,7,,8,8,8,8,
{16}8,,3,4,2,,6,5,7,,{24}1,2,3,{16}4-8[8:1]/5,,6,,4,,{24}7,6,5,4,,,2,3,4,{16}5,,7-4[8:1],8,,8,7,,
{16}1,,35,,78,,26,,1-5[8:1],8,,8,1,,7,,
{16}46,,{24}3,2,1,{16}8/7-3[8:1],,6,,7/8,,1,1,1,1,1,,
{16}7<4[8:1],,2,,7-3[8:1],,1,,7,,1-5[8:1],,2,8,1,,
{16}E7,E8,E1,E2,E3,E4,E5,E6,2,,2,,2,,2,,
{16}8,,,,5h[4:1]/6,,,,1,,,,4h[4:1]/3,,,,8,,,,1-5[8:1],,,,1,,7,,8,8,8,8,
{16}8,,6,5,7,,3,4,2,,{24}8,7,6,{16}5-1[8:1]/4,,3,,5,,{24}2,3,4,5,,,7,6,5,{16}4,,2-5[8:1],1,,1,2,,
{16}8,,64,,2/1-5[8:1],,73,,{24}1>4[8:1]/8,7,6,,,,1/8,7,6,,,,
{16}1/8,,{32}3,4,5,6,7,8,1,2,{16}7/3,,1,1,1,1,{12}1x,2x/8x,3x/7x,
{4}4xh[4:1]/6xh[4:1],,2h[4:1]/5h[4:1],,
{32}8/7x,6,5,4,,,,,8/1x,2,3,4,,,,,
{24}7x,6,5,8x,7,6,1x,8,7,2x,1,8,{8}3xh[1:3],,,,,,,,,,,,,,,,,,,,,,,,
Ch[1:1],
E
