&title=白線 (やしきん Remix)
&artist=葛城リーリヤ / やしきん
&first=0.52
&des=Aza
&lv_6=14
&inote_6=(181)
{8}3h[8:3],,5h[4:1],,3h[2:1],,5,,6h[8:3],,4h[4:1],,6h[2:1],,5,,4h[8:3],,5h[4:1],,3h[2:1],,4,,5h[8:3],,4h[4:1],,6h[2:1],,4,,5h[8:3],,7h[4:1],,5h[2:1],,8,,1h[8:3],,3h[4:1],,1h[2:1],,4,,2h[8:3],,4h[4:1],,2h[2:1],,1,,8h[8:3],,6h[4:1],,8h[2:1],,4,,
{8}5,6,5,4,3,3,4,5,6h[2:1],5,4,3,4,4,5,6,5h[4:1],4,3,4,5,5,6,5,4,3,4,5,6,6,5,4,3/5,2,1,8,7,7,6,5,4/6,3,2,1,8,8,7,6,5/E4,6,7,8,1,1,2,3,6/E5,7,8,1,2,2,3,4,
{8}5h[1:2]/E3,,,E4,,,,,E7,,,E8,,,,,{4}1h[4:1],6h[4:1],2h[4:1],7h[4:1],3h[2:1],,8h[2:1],,4<3[4:3],,,,{16}5,5,4,4,6,5,7,4,8,3,1,2,{4}8b-4[8:1],
{8}2>5[8:1]/8,,2/6,7h[4:1],,4-1[8:1],,4-7[8:1]/6,,4V61[4:1]/2,,4/8h[4:1],,,{16}7,6,5,4,{8}2/3-8[8:1],,3/1h[4:1],,7,6/2,5/3,4,{16}6h[16:3],,,5h[16:3],,,7-4[8:1],,8,,4/7,,{16}3,2,1,8,{8}6V47[4:1]/7,,8,2h[4:1],,1<6[8:1],,1>4[8:1]/3,,1-6-2[4:1]/7,,1/3-8b[8:1],,,,,{16}1h[4:1]/7b,6,5,4,3,,8h[4:1]/2b,3,4,5,6,,3h[4:1]/1b,8,7,6,5,,6h[4:1]/8b,1,2,3,4,,4/8b,7,6,5,4,3,2,1,
{8}4h[8:1]/8h[8:1],,2h[8:1]/6h[8:1],,{16}7V51[4:1],,,8,,,2,,{8}4-2[8:1]*-8[8:1],,4,,{16}7h[8:3]/1,,,5,,,3,,{8}1h[8:1]/5h[8:1],,3h[8:1]/7h[8:1],,{16}2/6-4-7[4:1],,,4,,,2,,{8}8-3[8:1]*-2[8:1],,8,,{2}4w8b[8:1],
{8}2-5[8:1]/6-1[8:1],,2/6,,{16}4-8-3[4:1]/8,,,1,,,7,,{8}5-2[8:1]*-1[8:1],,5,,{16}3h[8:3]/8,,,6,,,4,,{8}3>8[8:1]/7<4[8:1],,3/7,,2h[16:1],3h[16:1],4h[16:1],5h[16:1],{16}8>6[8:3],7,1,6,{8},,7,8,1b-5-7-3[2:3],,
{8}2,2,2,3,3,3,4,4,4,5,5,5h[8:3],,,8-4-2-6b[2:3],,7,7,7,6,6,6,5,5,5,4,4,4h[8:3],,,2-6-8-3[2:3],,3,3,3,4,4,4,5,5,5,6,6,6h[8:3],,,,,4h[16:1]/5h[16:1],4h[16:1]/5h[16:1],3h[16:1]/6h[16:1],3h[16:1]/6h[16:1],{16}2,7,2,7,1-4[8:1],8,1,8,{8},5hx[8:3],,,3,4/7,{16}6,5,8,,
{32}4b,3,2,1,8,7,6,5,{16}1x,8x,7x,6x,2,5,2,5,3,4,3,4,{8}2-5[8:1],5v3[8:1],2,7,1<6[8:1],,5-8[8:1]/1,{16}3,3,{8}5>2[8:1],,5/7h[4:1],,{16}8,6,1,7,2,8,3,1,{8}4-2[8:1],4,8-4b[8:1],7,1/8,,2,3,{16}4V61[4:1]/6,7,8,1,{4},{16}5,5,3,3,6,4,7,3,{8}8-2[8:1],2-6[8:1],8,3,4-8[8:1],,4/7,{16}6,6,{32}1,2,3,4,{8},{32}1,8,7,6,{8},{16}3,4,3,4,2-6-1-5b[8:3],5,2,5,{2},E8h[4:1]/B8h[4:1]/E1h[4:1],
{32}2/6,3x/5x,,,{8},{32}3/7,4x/6x,,,{8},{16}2,1,3,8,4,7,5,6,{8}4-2[8:1],4-8[8:1],,,1h[4:1],,{32}7V13[4:1],6/2,5/3,4,{8},3-8[8:1],,4h[4:1],,{16}7,7,5,5,6,4,7,3,{32}8b,7,6,,{16},{32}7b,6,5,,{16},{32}6b,5,4,,{16}2h[8:1],,4,3,5h[8:1],,3,4,{8}2-5[8:1],2,{16}5,6,7,8,E7,E8,E1,E2,E3,E4,E5,E6,{8}8,8,1/7,1/7,{16}6,5,6,,4/7,,3,4,2b/5h[32:1],,,2b/5h[32:1],,,2b/5h[32:1],,8b/4h[32:1],,,8b/4h[32:1],,,8b/4h[32:1],,{8}7h[16:1],6h[16:1],5h[16:1],4h[16:1],{16}7,6,5,4,7,6,5,4,
{1}7h[1:7]/3h[1:8],,,,,,,,{4}8<1[2:3],,,,,E5,C,,8<1[2:3],,,,,E5,C,,8<1[2:3],,,,,E5,C,,8w4[4:3],,,,,,,C,
{16}2h[4:1]/E1,E8,E7,E6,E5,,3h[4:1]/A1,A8,A7,A6,A5,,4h[4:1],,,,,,7h[4:1]/E1,E2,E3,E4,E5,,6<1[8:1]/A1,A2,A3,A4,A5,,,,5h[4:1]/E2,E1,E8,E7,E6,,4h[4:1]/A1,A8,A7,A6,A5,,3h[4:1],,,,,,D2,D1,D8,D7,D6,D5,{2}2-5[8:1],{16}6h[4:1]/E8,E1,E2,E3,E4,,7h[4:1]/A8,A1,A2,A3,A4,,8h[4:1],,,,,,3h[4:1]/E2,E1,E8,E7,E6,,2>5b[8:1]/A1,A8,A7,A6,{4}A5,{8}6bx-4[8:1],,2/6,3bx-6[8:1],,3/8,7bx-3[8:1],,1/7,2bx-7[8:1],,2/8,1bxw5[8:1],,B1,,
{4}3b/7,{16}4/8-3[8:1],7,6,5,8-4[8:1],,6,,8,,,,8-6[8:1]/5,,2,,4/8,,,,8-4[8:1]/4,1,2,3,4/8,,,,5/8-6[8:1],1,2,3,4/8,,,,8-4[8:1]/4,1,2,3,4/8,,,,2h[2:1]/6,,,,E6,E5,E4,E3,E2,E1,E8,E7,{4}3-8[8:1],
{4}6b,{16}5/1-6b[8:1],2,3,4,1-5b[8:1],,3,,1,,,,1-3b[8:1]/4,,7,,5/1,,,,1-5b[8:1]/5,8,7,6,5/1,,,,4/1-3b[8:1],8,7,6,5/1,,,,1-5b[8:1]/5,8,7,6,5/1,,,,7h[2:1]/3,,,,E4,E5,E6,E7,E8,E1,E2,E3,{4}6-1b[8:1],
{4}2,2,2,2,2,2,2,2,2/3<1[2:1],2,2,2,{16}2,1,3,8,4,7,5,6,4,7,3,8,{4}2b-5[8:1],
{4}2/6<1[8:1],{8}4/6,3h[4:1],,8h[4:1],,{32}4-7[8:1],3/7,2/6,,,,,,{4}4-8[8:1],4,{16}7h[4:1],,1,2,3,4,{4}5-2[8:1]/8-4[8:1],5/8,{8}1,2/6pp1[2:1],3,,{32}2bx,3,4,,,,2bx,3,4,,,,2bx,3,4,,{4}8<4b[4:1],{16}4,3,2,1,{2}8V26[4:1],{8},7-4[8:1],,7-1[8:1]/1,,7<3[4:1]/3,,7,,1h[8:3],,,{16}2b,3,4,5,6,7,8/3b,4,5,6,7,8,1/4b,5,6,7,8,1,2/5b,6,7,8,1,2,{2}3^4z8b[4:1]/6b^5s1[4:1],
{4},E7,E6,{8}E5,D7,E4,B7,E3,D8h[4:1],{4}E2,E1,Ch[4:1],E2,E3,E4,{16}E5/D2,,,B2,E6,,D3h[4:1],,{4}E7,E8,Ch[4:1],A8,A7,{8}A6,E1,A5,E3,A4,E5,A3,E7h[4:1],A2,,Ch[4:1],,A1,B2h[4:1],A2,,A3/B1h[4:1],,A4,B8h[4:1],A5,,A6/B7h[4:1]`6!>1[4:1],,,,C,
