&title=Wish Upon a Snow
&artist=打打だいす
&first=0.06999999
&lv_5=14
&des_5=QwQ_SoughKeleton_QaQ
&inote_5=
(218){4},,,,,,,,{8}5/6>8[4:11],
6/5,{4},,,{1}B3,
E6,
4-8[2:1],
{8}1/2<4[4:11],2/1,{4},,,{1}B2,
E8,
5-1[2:1],
{2}8/4>8[2:1],8V62[2:1],
5h[2:1],4V68[2:1],
8V24[2:1],5,
{1}6/3-7-5[2:1],
{8}1/2<6[2:1],1/2,{4},{2}6V42[2:1],
2V86[2:1],5,
{8}3/5,3/5,{16}6x-4[8:1]*-3[8:1],7x,{8}8x,{2}6x-8[8:1]*-1[8:1],
{16}4,3,2,1,8,7,6,5,{24}8,7,6,5,4,3,2,1,8,7,6,5,
1x,2x,{12}3xh[3:2],{6},,,,,,,,,,,{24}7x,
6x,{12}5xh[12:11],{6},,,,,{1}4-8>3[4:3],
{4}5h[8:7],{8}4,4,,3,3,3,
{24}A6,E6,E5,A4,A1,E2,E3,A3,,{8}7x,{2},{4}7/5-3[8:1],
{8}6,7-5[8:1],,2,1,8>3[16:3],
,4,5,5,{4}4,{8}6/5,6/5,
{4}7<4[16:3],{8}3,2-5-1[4:1],,6,7,8xh[4:1],
,1,2,3/7,{2}3-8[8:1]/7-4[8:1],
{4}2/5-7[8:1],{8}3,2-4[8:1],,7,8,1<6[16:3],
,5,4,4,{4}5,{8}3/4,3/4,
{16}2,3,{8}4,{16}7,6,{8}5,{16}1,2,{8}3,8,7/2b-8-3-7b[2:1],
{1},{4}7h[16:3]/5h[16:3],
7h[16:3]/5h[16:3],{8}6/4,{4},{8}2xh[16:3]/4xh[16:3],
,1x/8x,{4}1x/8xq5[16:3],{2},{4}2h[16:3]/4h[16:3],
2h[16:3]/4h[16:3],{8}3/5,{4},{8}7xh[16:3]/5xh[16:3],
,8x/1x,{4}8x/1xp4[16:3],{2},{8}5h[4:1],
4,3h[4:1],6,7h[4:1],{16}2,1,{8}8,7,
{16}7,6,{8}5,1,{16}1,2,{8}3,6,{16}6,5,{8}4,
{16}2,3,2,3,{8},{16}8,1,8,1,{8},{16}5,6,{8}4x-8[16:3],
,5,6,7,,{16}7x,4x,6x,3x,{8}5x,
{32}2bx,3,4,5,{4},{32}8bx/5bx,7/4,6/3,5/2,{4},{32}1bx/5xh[8:1],2,3,4,{4},{32}1bx/2xh[8:1],
8,7,6,{4},{8}1bx/7bxpp4[4:3],{4},{8}3xh[1:1],
,,,,,,,4x-8-6[8:3],
{2},{8}5h[16:1],5h[16:1],5h[16:1],5,
{32}7bx,6,5,4,{4},{32}1bx/4bx,2/5,3/6,4/7,{4},{32}8bx/4xh[8:1],7,6,5,{4},{32}8bx/7xh[8:1],
1,2,3,{4},{8}8bx/2bxqq5[4:3],{4},{8}6xh[1:1],
,,,,,,,5,
,{16}6,5,7,5,{8}8h[8:3],,{16}3,2,{4}1,
{32}8bx/1bx,2/7,6/3,4/5,{4},{32}1bx/2bx,3/8,7/4,5/6,{4},{32}7bx/8bx,1/6,5/2,3/4,{4},{32}1bx/5xh[8:1],
2,3,4,{4},{32}1bx/2xh[8:1],8,7,6,{4},{8}7bxpp4[8:7]/2bxqq5[8:7],
{4},,,,,,,{16}4,
5,4,5,
{2}3V51-6-2[4:3],8h[2:1],
{4},5h[4:1]/3h[4:1],,{16}5,4,5,4,
{2}6V48-3-7[4:3],2h[2:1],
{4},4/6,{16}7h[16:1],5h[16:1],7h[16:1],5h[16:1],7h[16:1],5h[16:1],7h[16:1],5h[16:1],
{8}8,1/2,1/2,2/3,3/2,3/4,4/3,{32}4x,5,6,7,
8,1,2,3,4,5,6,7,8,1,2,3,4,5,6,7,8,1,2,3,{8}4/A8/D8/E8,E6/A5/B5,D2/A2/E2f,
,4/5,6/3-8[8:1],7-4[8:1],3,7,1,2b-5-8[2:1]/8b-6-1[2:1],
{1},{16}7,
8,7,8,7,8,7,8,7,8,7,8,7,8,7,8,
7,8,7,8,7,8,7,8,7,8,7,8,7h[32:1],8h[32:1],7h[32:1],8h[32:1],
{1}7x,
,4-1[4:7],
,5-8[4:7],
,4-1[4:7],
,5-8[4:7],
,{4}4-1b[4:7],
8,8,{8}7,7,
{4}7,6,6,{8}5,5,
{4}5-8b[4:7],1,1,{8}2,2,
{4}2,3,3,{8}4,4,
4h[8:3],6,7,8,3h[8:3],5,6,7,
2h[8:3],4,5,6,1h[8:3],3,4,5,
{32}8,7,6,5,4,3,2,1,8,7,6,5,4,3,2,1,8,7,6,5,4,3,2,1,8,7,6,5,4,3,2,1,
{8}5h[16:1],5h[16:1],6h[16:1]/4h[16:1],6h[16:1]/4h[16:1],7h[16:1]/3h[16:1],3h[16:1]/7h[16:1],8h[16:1]/2h[16:1],2h[16:1]/8h[16:1],
{1}1xh[2:3],
,{32}3/7-5[8:1],
8/4,{16}1/5,{8},7/2,2-8[8:1],,2-4[8:1]/7-4[8:1],6,7/2,
,1/8>3[8:1],7,6/8,,{16}5,4,6-4[8:1],5,{8}7,
{4}6V82[4:1]/2-4[8:1],6/2>2[2:1],{8},8,,4h[4:1],
{4},{8}5/3,6,1/7,3,{24}5,4,5,4,{12},{32}6/2-4[8:1],
1,{16}8,{8},2/7,7-1[8:1],,2-5[8:1]/7-4[8:1],3,2/7,
,8/1<6[8:1],2,3/1,,{16}4,5,3-5[8:1],4,{8}2,
{4}3V17[4:1]/7-5[8:1],3/7<7[2:1],{8},1,,5h[4:1],
{4},{8}4/6,3,8/1,6,{24}3,4,3,4,{12},{4}1bxq5b[8:1],
{16}6bx,7bx,{8}8bxw4b[8:1],,8bx,,2b/6b,
,8b/7bV13>8b[2:1],{4}1b/6b,{8},,,{16}4bx,3bx,
{4}2bxq6b[8:1],{16}7bx,8bx,{8}1bxw5b[8:1],,1bx,,3b/7b,
,1b/2bV86V82b[2:1],{4}3b/8b,{8},,,{16}5,6,
{8}7/3,{16}1,8,{8}1,6/2,{16}5,4,{8}5,6/3,{16}2,7,
{8}2,8/1,8/7,7/6,6/5,5/4,{32}4x/E1,E2,E3,E4,E5,E6,E7,E8,
E1,E2,E3,E4,E5,E6,E7,E8,E1,E2,E3,E4,E5,E6,E7,E8,E1,E2,E3,E4,E5,E6,E7,E8,E1,E2,E3,E4,E5,E6,E7,E8,
{1}Cf,
Cfh[8:9],
{8},7b,{16},3b/Cf,{8},{16}8b/Cf,{8},{16}1b/Cf,{8},6b/Cf,
{4}2x/7x,{32}1b,2,3,4,5,6,7,8,{8}1,5bw1b[8:1],,5b,
,7-4[8:1],2-5[8:1],7,2,8,1,6,
{32}3/7-5[8:1],8/4,{16}1/5,{8},7/2,2-8[8:1],,2-4[8:1]/7-4[8:1],6,7/2,
,1/8>3[8:1],7,6/8,,{16}5,4,6-4[8:1],5,{8}7,
{4}6V82[4:1]/2-4[8:1],6/2>2[2:1],{8},8,,4h[4:1],
{4},{8}5/3,6,1/8,2,{24}3,4,3,4,{12},{1}5xV71-3V17-5[4:7],
{48}D4,A4,{24}D5,{3},,{8}8,1,
{1}2x>8<2[4:7],
{48}D1,A1,{24}D2,{3},,{8}5,6,
{1}7xpp6[1:1],
{4},,,{8}4,3,
{1}2xqq3[1:1],
6q4b[8:5],
{4}5h[4:3],{8}6,6,,7,{4}7-1-6-2[8:5],
{1}7,
{4}5b-2[8:1],{8}6,7b-4[8:1],,8,{4}1h[8:3],
{8}2b-5[8:1],2,,8,{2}1w5[8:1],
{4}8b-3[8:1],{8}5,4b-7[8:1],,6,{4}5h[4:1],
{24}1,2,3,4h[8:1],,,,,,1,2,3,{4}4h[8:1],1xh[4:1],
4b-7[8:1],{8}3,2b-5[8:1],,1,{4}8h[8:3],
{8}7b-4[8:1],7,,1,{2}8w4[8:1],
{4}1b-6[8:1],{8}4,5b-2[8:1],,3,{4}4h[4:1],
{24}8,7,6,5h[8:1],,,,,,8,7,6,{4}5h[8:1],{16}8,1,8,1,
{8}7x-4[8:1],8,1,2x-7[8:1],3,4,5x-2[8:1],6,
7,8h[8:3],1,2,{2}3V51[4:1],
{8}6,{16}7,8,{8}7,6/1,{16}3,4,{8}3,5/3-6[8:1],6x-1-4[16:5],
{2},{16}8,1,2,3,4/8,1/5,2/6,3/7,
{4}8x/4x,{16}8/2,3,4,5,{8}8/6h[8:1],8-4[8:1],,8b/1b,
,{16}3,2,1,8,7,6,{8}8/5h[8:1],8-4[8:1],,8b/1b,
,{24}5,4,5,{4}4,{8}6/3,2/7,1/8>7[2:1],3xh[8:5],
{1},{16}2,
1,2,1,2,1,2,1,2,1,2,1,2,1,2,1,
2,1,2,1,2,1,2,1,2,1,2,1,2h[32:1],1h[32:1],2h[32:1],1h[32:1],
{1}2x-6-2[4:11],
,8xq8b[4:7],
,,,{24}A6,
B6,E4,A3,
E
