&title=サクラノタトゥー
&artist=一二三; ピノキオピー
&first=0
&des=Kurene_Sakura
&lv_5=13+
&inote_5=(176)
{1},,,
{1}7/2h[1:1],
{1}4h[1:1],
{1}5h[1:1],
{1}7h[1:1],
{8}2h[1:1],,,4,,,4,,
{8}4h[1:1],,,5,,,5,,
{8}5h[1:1],,,7,,,7,,
{8}7h[1:1],,6,5,4,3,2,1,
{4}8-4[8:1],8x<2b[4:2],Chf[4:2],,
{1},
{16}25,,3,4,3h[8:1],,8,,47,,6,5,6h[8:1],,1,,
{16}2/5h[16:3],,,4h[16:3],,,2,4,2-6-8[4:1],,,,24,,3,,
{16}1v6[8:1],,,,21,,3,,4,,6,5,6,,1h[4:1],,
{8},3<8[4:2],,1,2,3,4x,5x,
{16}74,,6,5,6h[8:1],,1,,52,,3,4,3h[8:1],,8,,
{16}7/4h[16:3],,,5h[16:3],,,7,5,7-3>1[4:1],,,,75,,6,,
{16}8q4[8:1],,,,78,,6,,5,,3,4,3,,7h[4:1],,
{8},Ch[8:5],,7,8,1b,1bs5[8:13],,
{4}6,6,7x,7x,
{4}8,8-4b[8:1],8,{8}36,27,
{8}1/8h[4:1],2,3h[4:1],7,6h[4:1],3,2h[8:1],6,
{8}72,18,3p7[8:1]/6q2[8:1],45,36,,C,,
{8}1,2h[4:1],1,8h[4:1],1,3h[4:1],1,7h[4:1],
{8}1,4h[4:1],1,1h[4:1],8h[8:1],,1s5[8:1]/8z4[8:1],18,
{8}18,,3-7[8:1]/6-2[8:1],,36,,18,27,
{8}3h[4:1]/6,,5v2<8[4:1],6,5b/8w4b[8:1],,,,
{4}8xh[8:7]/1xh[8:1],2h[8:1],3h[8:1],4h[8:1],
{4}4xh[8:7]/8xh[8:1],7h[8:1],6h[8:1],5h[8:1],
{4}4xh[8:1]/5xh[8:1],3h[8:1]/6h[8:1],2h[8:1]/7h[8:1],1h[8:1]/8h[8:1],
{4}E3/E7/Ch[4:2],E1,E5,C,
{8}5h[8:7]/3,3,3,3,1,2,3,4,
{8}4h[8:7]/5,5,6,7,8,7,6,5,
{8}5h[8:7]/3,3,3,3,1,2,3,4,
{4}E7,C,E3,7/4h[4:2],
{8}1,8pp2pp4[8:3],7,6h[8:1]/8x,,6bx/C,,7,
{8}8,1qq7qq5[8:3],2,3h[8:1]/1x,,3bx/C,,48,
{8}37,2pp4pp6[8:3]/6pp8pp2[8:3],15,2x/6x,,Cf,,1,
{8}1-3[8:1],1-7[8:1],1w5[8:1],,,,1x,2x/8x,
{8}3x/7x,4hx[8:3]/6x,,,{16}3h[4:1],,,2,2h[4:1],,,1,
{8}1h[4:1],,8h[4:1],,4,51,6/2<5[4:2],73,
{8}4h[8:7],,,,,,3>6[4:2],Ch[8:5],
{4},,,1v4[8:1],
{8}1,5-2[8:1],6,5x-1[8:1]*-8[8:1]/7,,5b,,6,
{8}5,4-7[8:1],3,4x-8[8:1]*-1[8:1]/2,,4b,,6,
{8}7,8-2[8:1]*-6[8:1],71,8xw4[8:1],,8b,,8x/7x,
{8}1x/6x,2x/5x,1x/2x,3x/8x,4hx[4:1]/7x,,8>6[4:2],,
{4}8,,1p5[8:1]*q5[8:1],1,
{8}1qq7[8:1],,3,2,1pp3[8:1],,6,7,
{8}8qq6[8:1],,2,1,8pp2[8:1],,7,6,
{4}5w1[8:1],,5bxp5pp6b[8:3]*q5qq4b[8:3],5bx,
{8}Cf,,,1,28,3h[8:1]/7h[8:1],,37,
{8}48,1<4[8:5]/5,,15,4,3,2,1,
{8}8h[4:4],,1,2,3,4,5,6,
{8}7,7V51[4:1],2-6[8:1],2,Cf,,8xpp8b[4:1]/7xqq7b[4:1],1x/6x,
{8}7xb/8xb,,,1xq5[8:1]/6xp2[8:1],2x/5x,1xb/6xb,,1,
{8}2q6[8:1],2,8q4[8:1],8,5q1[8:1],5,3pp5pp7pp1pp3b[4:4],3,
{1}Chf[4:4]/3bx,
{2},2h[2:1]/6h[4:1],
{4}Ch[4:31]/B8/B7,,E4,B5,
{8}2xh[8:1],,3x,4x,{16}E4,B3,B2,,{8}1x>3[8:1],1x,
{8}1x<7[8:1],,1x,,{32}1x,E2,B2,B3,{8}4x,4x,4x,
{8}2x,8x,2x,8x,1xh[16:1],1xh[16:1],2x,8x,
{16}1x,,1x,2x,3xqq8[4:1],,3x,,3x,,,,,,,,
{16}A1,,A2,E3,B3,,A4,,{4}3xh[8:1],2xh[8:1],
{2}1bx,2bx,
{4}1bx,2bx,{8}3bx-7b[8:1],4x,3x,5x,
{8}6xh[4:1],,7,8h[4:1],,1,2h[4:1],,
{8},2-5[8:1],1,8,7-2[8:1],6,5,4,
{8}3h[8:7],1,8,1,8,7,6,5h[8:9],
{8},6,7,8,1,2,3,4,
{8}3h[4:1],,2,1h[4:1],,8,7h[4:1],,
{8},7-4[8:1],8,1,2-7[8:1],3,4,5,
{8}6h[8:7],8,1,8,1,2,3,4h[8:9],
{8},3,2,1,8,7,6,5,
{8},,6,7,8qq5[8:9],8,8x,,
{8},,3,2,1v4[8:1],1,1x,,
{8}2x-5[8:1],,4-7[8:1],,6-1[8:1],,8v3[8:1],,
{8}7/8x<5[8:1],,2x/8-4[8:1],1x,8w4[8:1],,8,,
{8}1-5[8:1]/8-6[8:1],,8-4[8:1]/1-3[8:1],,18,,5x,6x,
{4}8x/E7,1x/C,2x/E3,,
{1},
{1}Ch[1:1],
{1}8-5[4:4],
{1}1-4[4:4],
{1}8-5[4:4],
{8}1-4[4:4],,,,,,5x,6x,
{8}7x,8hx[8:15],,,B8,,C,,
{8}B4,,A4,,3x,2x,1x>8[4:4],1x,
{8}1x,,,,,,1,1-3[8:1]*>4[8:1],,1xb-7[8:1]*<6[8:1],,1bxv4[8:1],,1bx,6h[4:1],,
{8}5,4-8[8:1],3,2/4xw8[8:1],,4b,,3,
{8}4,5>2[8:1]*<8[8:1],46,5xw1[8:1],,5b,,6,
{8}7,8pp8[4:1]*qq8[4:1],71,8xw4[8:1],,Cf,,1x/2bx,
{8}3bx/8x,4bx/7x,7bx/8x,1x/6bx,2x/5bxh[4:1],,1pp5[4:2],,
{4}1,,8q5[8:1]*p3[8:1],8,
{8}8pp1[4:1],,6,7,8qq7[4:1],,3,2,
{8}1pp2[4:1],,7,8,1qq8[4:1],,2,3,
{4}4w8[8:1],,4bxq4qq3b[8:3]*p4pp5b[8:3],4bx,
{8}Cf,,,8,71,6h[8:1]/2h[8:1],,62,
{8}51,8pp2pp4[8:5]/4,,84,5,6,7,8,
{8}1h[4:4],,8,7,6,5,4,3,
{8}2,2-4v3[4:1],7v8[8:1],7,Cf,,A4/E4/B4/D4/A5/D6/E6/B5,A2/B2/D3/E3/A7/E7/B7/D7,
{8}E1/B1/B8/D1f/Chf[8:5],,,B4/B5,B2/B7,E1,,8,
{8}7p3[8:1],7,2p6[8:1],2,5p1[8:1],5,4-8[8:1],4,
{1}4xbqq2q3q8b[4:3]*pp6p5p8b[4:3],
{2},{16}3b/6bx,4b/5bx,{8},{24}2b/7b,3bx/6bx,4bx/5bx,{8},
{32}1b/8b,2bx/7bx,3bx/6bx,4bx/5bx,{8},,2b<6[8:1],6b>2[8:1],Cf,,8h[4:1],
{8},6-2[8:1],8-4[8:1],6,8-5[8:1]*-3[8:1],,8w4[8:1],,
{8}8,,2-6[8:1],2,8-4[8:1],8,3x-7[8:1],3x,
{8}1x-5[8:1],1,1bpp3[8:1]*qq7[8:1],,1b,,1-5[8:1]/8-4[8:1],27,
{8}1b/8b,,1p4[8:1]/8q5[8:1],36,1b/8b,,1s5[8:1]/8z4[8:1],45,
{8}1b/8b,,1bx/8,2/7bx,3bx/6,4/5bx,3bxqq5[1:1]/6pp4[1:1],4/5bx,
{1}3bx/6,
{2},Ch[8:3],
{8}45,4,4,46,6,6,26,2,
{8}2,28,8,8,A1/A8,A2/A7,A3/A6,A4/A5,
{2},C,
