&title=MARENYX
&artist=blackyXaoi
&first=0.01
&des=白洁
&lv_5=14.6
&des_5=白洁
&inote_5=
(195){4},{8},,,,,,,,,,,,,,,6h[4:3]/3-7-1-4[2:3],
,,,,,,,,,,,,,,,4h[4:3]/7v2-8-5[2:3],
,,,,,,,,,,,,,,,5h[4:3]/2v7-1-6[2:3],
,,,,,,,,,,,,,,,4h[4:3]/6v1-3-7[1:1],
,,,,,,,,,,,3/6,
{16}5,4,7,4,
5,4,{8}6h[4:1]/3-1b[8:1],,3z7-5s1[1:1],,,,,,,,,,,,,,7h[8:7]/1h[4:1],
,,{4}1-3[8:1],1-6[8:1],
{8}1,,,,,3h[2:1]/8-4[8:1],,8pp5[8:3],
,8,{16},,,,,,2,1,2,8,{8}2,
{4}1h[8:1]/3h[4:1],{8}8,{16}6s2[4:1],4,5,4,{8}7h[4:1],,,,8s4<1>2[2:3]/7z3>5b[2:3],
{1},{4},,,{16},,{24}3,
,4,,2,,6,,5,,8,,2,,4,,1,,6-4-2-5[8:3],,4,
,1,{4},,{24},{16}8,2,1,3,8,7,
6,5,{8}4h[8:1]/2h,,5h/2h[8:1],,6h[8:1]/3h,,4h[8:1]/7h,
,7h[8:1]/5h,,2h[8:1]/4h,,8h[8:1]/6h,,3h[8:1]/1h,
,7h[8:1],E6,4h[8:1],C,7h[8:1],E1,2h[8:1],
B3,6h[8:1],E8,1-5[8:1],,6h[8:1]/1-3[8:1],,1/7h[8:1],
,8h[8:1],1h,2h[8:1],5h,4h[8:1],6h,1h[8:1],
7h,5h[8:1],6h,3h[8:1],1h,4h[8:1],7h,6h[8:1],
8h,1h[8:1],4h,3h[8:1],7h,1h,8-3[8:1]/2-7[8:1],1,
{4}2/8,{16}5,4,6,4,{8}5h[8:1],{16}1,8,7,6,5/8,4/7,
{8}6/3h[8:1],,,7h[8:1]/5bh,2,3h[8:1]/4h,8,6h[8:1]/5h,
1,3h[8:1]/5h,8,5h[8:1]/4h,,2/6,{4}2-8[8:1]/6-4[8:1],
2b/6b,{8}2/6,4h[8:1]/8-6-4[4:1],,8/4,3,2,
,6h/A8/E1/B8,{24},6h/B2/E3/A2,,,,6h/B4/E5/A4,,,,{8}3h/A1/E2/B1,{24},3h/A7/E8/B7,,,,3h/B5/E6/A5,
,,,{8}8h[8:1]/2h,2,4h[8:1]/2h,2,8h[8:1]/6h,6,4h[8:1]/6h,
6,5h[8:1]/3h,2,4h[8:1]/6h,7,2b/B6/A6/E7,{24},8b/B4/A4/E4,,,,1b/B5/E6/A5,
,,,{8}2-6[8:1],2,7-4[8:1],7,1-5[8:1],1,8qq3[8:3],
8,1,,1pp5[8:3],,7h[4:1],{16},,,,,,2b,
4,3,5,{8}8,{16}2b,4,3,6,{8}8,2v5-8-3[4:3],
,5h[8:1],,,6h[8:1],,,7,
{16},,6b,5,7,4,{8}1,{16}6b,5,7,3,{8}1,3v6-1-7[8:5],
,6,,5,{4}5h[8:1],4h[8:1],
{8},8h[8:1]/2h,3,4h[8:1]/5h,6,1h/7h,4,2h/8h,
5,4h[8:1]/6h,7,8h[8:1]/1h,2,3h/5h,8,6h/4h,
1,{16}7b,8,6,1,{8}7,{16}2b,1,3,8,{8}2,{16}6b,5,
7,4,{8}6,{16}3b,4,2,5,{8}3,{16}7b,8,6,1,7b,8,
5,2,7,8,7,8,6,1,6,1,{8}5h[8:1],{32}E8,E1,E2,E3,,,,,7,
6,5,4-8-2-7>6<7[32:25],{4},,,{8}B6/E6/B5/E5/B4,
,1h[8:1],{16},,,,8,8,8,8,{8}8,7/1,
{16}8,8,8,8,,,{8}7/1,8h[8:1],{16}2-6[8:1],1,3,1,{8}4h[4:1],
{16},,,,6,5,{8}7,{4}6h[8:1]/4h[8:1],5-8[8:1]*-2[8:1],
{16},,,,A1,B8/B2,{8}E4/E7,{4}5h[8:1],{16}1-6[8:1],4,2,5,
{4}3h[8:1],{16}1,1,1,1,,,1-3-5[8:1],1,1,1,,,{4}7-3[8:1]*-2[8:1],
7,{16}8/5,6/1,2/7-3[8:1],3/8,{4}4,
{16},,8/6,1/5,{8}4/2,A8/E8/B8,{24},A6/B6/E6,,,,B4/E4/A4,,,,6,7,8,
1,2,3,4,5,6,7,8,1,2,3,4,,,,{8}A8/B8/E1,{24},A2/B2/E3,,,,B4/E5/A4,
,,,{8}7-5[8:1],,7,{24},,8b,1,2,3,8b,1,2,3,4,5,
6,7b,8,1,2,7b,8,1,2,3,4,5,6,7,8,1v4-6[4:1],,,,,,,,,,,,{8}8,
{16},,6,6,6,6h[16:1],,,5,5,5,5h[16:1],
,,{8}3h[12:1]/7h[12:1],{24},2h[12:1]/6h[12:1],,,,5h[12:1]/1h[12:1],,,,{8}4h[12:1]/8h[12:1],{48},,B8,B1,B2,E3,B4,B5,B6,E7,,,,,,,,,{8}4h[8:7],
,6h[8:1],,1h[8:1],,3h[8:1],
{16},,5,6,4,7,3,4,2,5,8,7,1,6,2,1,
3,8,{8}2h[8:1],6h,5h/1h,4h/8h,7h/3h,{24}8/4,1/5,6/2,3/7,8,1,
2,3,4,5h[8:1],{16},,,{64},{192},{32}E3,B4,{16}A5,{32}E1,B7,{16}A6,{32}E3,B1,{16}A8,{32}E5,B6,{16}A7,{24}2,3,4,
5,6,7,8-5<6-2[8:3],,,,,,{8}2/8,2-8[8:1],,,4-8[8:1],
,6/4,{4}6h[8:1],{16}3,4,{8}2/5-7[8:1],{4}5/2h[8:1],
{8},1v4-7[8:3],,7/1,7-1[8:1],,,5-1[8:1],
,3/5,{4}3h[8:1],{16}6,5,{8}4/7-1-3[4:1],{4}7/4h[8:1],
{8},5-3-8-6[8:3],,6/5,6-1[8:1],,,4-2[8:1],
,4/6,{4}6h[8:1],{16}8,7,{8}1/6-8[8:1],{4}1/6,
{8},2/4,3/5,4,6/2,4,1/7,4,
8,{32}A4,A3,{16}A2,{32}A7,A6,{16}A5,{32}A1,B8,{16}E7,{32}A2,B3,{16}E5,{8}Cfh[2:1],,,,2<2[4:5],
,,,,,C,
,,,,,,,E7,
,E2,B3,E5,E7,E1,E6,E3,
{16},,E8,E7,E6,E5,E4,E3,{8}E1,B6,E3,B4,
D8,D7,D6,A4,,,E2,E1,
,E4,{4}E6,{8}B4,B6,{4}E8,
{8}E3,E2,E1,E8,,A4,A3,A2,
{16},,6,5,7,4,8,3,1,2,8,1,7-1-3-5-7[8:5],2,6,3,
{1}5h[6:5],
{4}3-1-6[4:1],{8}3/5v2-8-6[2:1],5h[8:1],,,,,,4h[3:2],
{24},B6,,,,B8,,,,{8}B2,{24},,,,,5v8-6[4:1],
,,,,,5/3h[8:1],,,,,,1,,,{12}1-5[8:1],,,{6}1/7,
{12},2h,,3h,,4h,,5h,,6h,,7/1,
{24},1/7v2-5[4:1],,,,,,,,,,,,,,{8}8h,{24},1h,,,,2h,
,,,{8}3h/5h[16:1],8,6h/4h[16:1],1,{16}3,5,8,7,4,5,
2,8,{24}4,6,4,{8}6h[24:1],{24}3,5,3,{8}5h[24:1],{32}8/7,1,2,3,{8}4,{32}1/2,8,7,6,
{8}5,1s5s1>8[4:5]/8z4z8<1[4:5],{1},{4},,,{16},,{24}6,
,5,,7,,3,,4,,1,,7,,5,,8,,3,,5,
,8,,7,,4,,1,,2,,6,,1,,5,6,7,8,1,2,3,4,5,
6,7,8,1/3,{48},,,,{16}2,1,{8}2/8-6[8:1],3,8-3[8:1]/4-1[8:1],2,4/8-6[8:1],
,8v5[8:1],{16}4,4,{8}8,{16}3,3,{8}7h/A1/B1/E1,{16},7h/E3/B3/A3,,,{8}7h/B5/E6/A5,
1/2,{16}8,7,{8}6/1-3[8:1],8,5v2[8:1]/1-6[8:1],6,5/1-4-7[4:1],
,1/7-5[8:1],{16},,,,,,3,4,2,5,1-5[8:1],6,
8,7,{8}1-3[8:1],{16}7,7,{8}1,{16}7,6,{8}5-7[8:1],4,5/3-1[8:1],
1,5/3-7[8:1],{16}7,6,{8}5-2[8:1]/3-1[8:1],,3/5,{16},,E8,E7,
{8}D6,{16}2,1,3,8,4v7[8:1],7,5,6,{8}4,,1/3,
1/3,{16}2,1,4,6,8,7,3,5,{8}1h/A7/E7/B7,{16},1h/E5/A5/B5,,,{8}1h[8:1]/E4/B3/A3,
,,8/6,{16}1,2,{8}8/3v8-2-5[4:1],5,3/6,
6,7h[8:1],,4/6v1-3-8[4:1],3,4/6,,5v2-8-3[4:1],
,5/6,{16}7,6,{8}5-7[8:1],,5v2[8:1]/1-4[8:1],,5/1-7-5[4:1],
,1w5[8:1],,,,2/8,7/3,4/6h[8:1],
{16},,5b,6,3,8,4,6,{4}1,{8}1/7,2/6,
5/3,{16}4b,5,1,6,3,5,{4}8,{48}A1,B2,{24}E4,{96},{32}E8,{48}B6,A5,,,,,,,,,,,{8}2/1,
{16}3,4,{8}3,2,8/7,{16}6,5,{8}6,
{4}1h[8:1],{8}8/2,7/3,{16}4,6,{32}B6,B8,{16}D1,{32},,E5,B3,{8}A2,
{32}A7,E6,{16}D5,{8}3h[4:1],,,6h[4:1]/4h[8:1],,,2h[4:1]/7h[8:1],
,,{4}1h[4:1]/4h[8:1],{48},,,,,,1b,B8,E7,,,,,,,1b,C,A5,,,,,,,1b,
B2,{24}E4,{48},,,,,,,,,,,,,,{16}6-1-3[4:1],5,6,5,{8}6<8-3b[4:1],,6,
,6,7,4/8-6[8:1],3,2/8,{16},,3,4,
3,4,{8}3,{16}7/2,6/1,{8}8/5-7[8:1],2,5/3-1[8:1],8,3/5,
8,{16}5,4,5,4,6,4,5,4,{8}5h[16:1]/B3/A3,{16},6h[16:1]/A2/B2,,,{8}7h[16:1]/A1/B1,
{16}3,4,1,6,3,4,8,7,{8}8h[16:1]/A6/B6,{16},1h[16:1]/B5/A5,,,{4}2h[16:1]/A4/B4,
{16}7,1,8,1,7,1,6,4,6,2,5,3,
5,1,{8}6h[2:1],{24},B5,,,,B3,,,,{8}E2/A1/B1/E1,,,,4h[2:1],
{24},E7,,,,E1,,,,{8}E3/B2/B3/D3,{16},,,,,,8-5[8:1],
1,7,1,{8}8,{16}2-5[8:1],1,3,1,{8}2,{16}7,8,
7,8,{8}7h[3:1],{24},A5/B5/E5,,,,B3/E3/A3,,,,{8}1h[3:1],{24},B7/A7/E7,,,,E5/B5/A5,
,,,{8}2/4,3/5,4/6,1/2,3/5,8/7,5/4,
{32}A8/A1,E8/E2,,,{16}6,5,6,4,6,5,6,4,{8}5h/E3/B3/A3,{16},5h/A1/E1/B1,,,{8}5h/A7/E7/B7,
{16}5,4,8,2,5,4,7,1,5,6,7,8,1/3,4/2,
5/3,6/4,{8}7/5bh,{16},5bh/B2/E3/B3/A3,,,5bh/B7/E7/B6/A7,,,5bh/A1/E1/B1/E2,,,5/7,6/4,
5/3,2/4,{8}1-7-5-3-1-4[2:15]/3-8-6-4-2-8-5[2:15],
E
