&title=Ultimate Force
&artist=削除
&first=0.035
&des=ttkr
&lv_5=15+
&inote_5=(270){1},
{8}2h,6h,3h,6h,4h,6h,5h,6h,4h,4h,5h,5h,3h,3h,5h,4h,7h,3h,6h,3h,5h,3h,4h,3h,5h,5h,4h,4h,{2}5h,
{32}1bs5[67.5#8:1]/8b,27,3/6h[16:23],4,{8}5,,,{2},1,,
{32}7b/8bz4[67.5#8:1],61,5/2h[16:23],4,{8}3,,,{2},8,,
{32}5b/6b,47,3/8h[16:31],2z6[74.4827586207#29:4],{8}1,,,{2},2,{8},1b,,1b,
{32}1b,72,6/3h[16:15],5,{8}4z8[77.1428571429#10:1],,,{2},4b,{4}2b/7b,3b/6b,
{1}4/5b>5[2:15],,4,,3,2,1,,{4}4/5h[4:1],3h[4:1],6h[4:1],2h[4:1],7h[4:1],1h[4:1],8h[4:1],2h[4:3],{1}7h[2:3],1h[1:1],{32}8b,2b-8[22.5#96:1]/7b-2[22.5#96:1],3b-7[22.5#96:1]/6b-4[22.5#96:1]*-3[22.5#96:1],4h[32:93]/5h[32:93],{8},{1},,,{4},,2-5[8:1],
{4}2b/8-4[8:1],1-5[8:1]/8b,1b/7-4[8:1],7b/8,
{8}2b-5[8:1]/6b,2,7-4[8:1],7,1-5[8:1],1,8-4[8:1],8,
{4}2-5[8:1]/8b,2b/7-4[8:1],1-5[8:1]/7b,1b/8,
{8}1bs5[2:1]/2b,2,4,4,6,6,8-4[8:1],8,
{4}1-5[8:1]/8b,1b/7-4[8:1],7b/2-5[8:1],2b/1,
{8}7b-4[8:1]/3b,7,2-5[8:1],2,8-4[8:1],8,1-5[8:1],1,
{4}7-4[8:1]/1b,7b/2-5[8:1],8-4[8:1]/2b,{8}8b/1,1,
{8}1b/7b,7,7b/5b,5,5b/4b,4,4b/2b-6[8:1],2,
{4}2b/8-4[8:1],1-5[8:1]/8b,1b/7-3[8:1],7b/8,
{8}2b-5[8:1]/6b,2,2/7-4[8:1],7,7/1-5[8:1],1,1/8-4[8:1],8,
{4}2-6[8:1]/8b,2b/7-3[8:1],1-5[8:1]/7b,1b/8,
{8}1bs5[2:1]/2b,3,4,5,6,7,8-4[8:1],1,
{4}1-5[8:1]/8b,1b/7-3[8:1],7b/2-6[8:1],2b/1,
{8}7b-4[8:1]/3b,7,7/2-5[8:1],2,2/8-4[8:1],8,8/1-5[8:1],1,
{4}7-3[8:1]/1b,7b/2-6[8:1],8-4[8:1]/2b,{8}8b/1,1,
{8}7b/8b,78,1b/6b,16,2b/5b,25,3b/4b,34,
{16}3bV17[4:1]/4b,,3,,1,8,7,6,5bV71[4:1],,5,,1,2,3,4,5bV31[4:1],,5,,8,7,6,5,4bV68[4:1],,4,,7,8,1,2,
{8}3b-7[8:1],3,3b/6b-1[8:1],6,6b/2b-5[8:1],2,2b/7b-3[8:1],7,1bv6[4:1]/7b,,{16}1b/5b,6,7,8,1b,2,3,4,5b,46,37,28,
{16}1bV75[4:1],,1,,5,4,3,2,1bV35[4:1],,1,,5,6,7,8,1bV75[4:1],,1,,4,3,2,1,8bV24[4:1],,8,,3,4,5,6,
{8}7b-4[8:1],7,7b/3b-8[8:1],3,3b/8b,7,6bv1[8:1],6,{32}8,1,2,3,{16}4,,7b,,5b,,6b,2,6b,3,6b,4,6b,5,
{16}6b-8[8:1],,6V82[8:1],,8,1,2,3,4b-2[8:1],,4V28[8:1],,8,7,6,5,4b-6[8:1],,4V68[8:1],,1,2,3,4,5b-3[8:1],,5V31[8:1],,2,1,8,7,
{8}6b-2[8:1],6,6b/3b-8[8:1],3,3b/7b-4[8:1],7,7b/2b-6[8:1],2,8bv3[4:1]/2b,,{16}8b/4b,3,2,1,8b,7,6,5,4b,53,62,71,
{4}8b-2[8:1],8b/7-3[8:1],7b/6-4[8:1],4/6b,
{8}3b/7b-4[8:1],7,7/2-5[8:1],2,2/8-4[8:1],8,81,1,1b-7[8:1],,1b/2-6[8:1],2,2b/3-5[8:1],,3b/5,,5b/7b,46,35,24,{16}1b,8,2b,7,3b,6,4b,5,
(135)
{8}2b>8[16:11]/7b<1[16:7],,,,,,2,3,
{48}4>7[12:1],3>6[12:1],2<5[12:1],1<4[12:1],8h[12:5],,{8},4,,
{48}2<5[12:1]*<5[12:1],1<4[12:1]*<4[12:1],8<3[12:1]*<3[12:1],7<2[12:1]*<2[12:1],6h[24:7],,{8},2,,
{48}8<3[12:1],7<2[12:1],6>1[12:1],5>8[12:1],4h[24:7],,{8}1,8,,
{48}5<2[12:1]*<2[12:1],6<3[12:1]*<3[12:1],7>4[12:1]*>4[12:1],8>5[12:1]*>5[12:1],1h[12:5],,2,3,4,{16}5h[16:1],{4},
{48}7<7[16:3],8,1,2,3h[12:5],,{8},7,,
{48}5<5[16:3]*<5[16:3],4,3,2,1h[24:7],,{8}4,5,,
{48}8>8[16:3],7,6,5,4h[24:7],,{8}7,8,,
{48}1,2,3,4,5,6,7,6,5,4,3,2,1,8,7,6,5,4,3,2,1,8,7,6,
{48}5<2[12:1],6<3[12:1],7>4[12:1],8>5[12:1],1h[12:5],,{8},5,,
{48}7>4[12:1]*>4[12:1],8>5[12:1]*>5[12:1],1>6[12:1]*>6[12:1],2>7[12:1]*>7[12:1],3h[24:7],,{8},7,,
{48}1>6[12:1],2>7[12:1],3<8[12:1],4<1[12:1],5h[24:7],,{8}8,1,,
{48}4>7[12:1]*>7[12:1],3>6[12:1]*>6[12:1],2<5[12:1]*<5[12:1],1<4[12:1]*<4[12:1],8h[12:5],,7,6,5,{16}4h[16:1],{4},
{48}2>2[16:3],1,8,7,6h[12:5],,{8},2,,
{48}4>4[16:3]*>4[16:3],5,6,7,8h[24:7],,{8}5,4,,
{48}1<1[16:3],2,3,4,5h[24:7],,{8}2,1,,
{48}8,7,6,5,4,3,2,3,4,5,6,7,8,1,2,3,4,5,6,7,8,1,2,3,
{12}4b<4[4:7]/5h[12:4],,,3h[6:1],,4,{24}3,5h[24:1],4,,5,,6,4h[24:1],5,,4,,3,,4,6h[24:1],5,,6,,5,3h[24:1],4,,3,4,5,4,5,6,5,6,7,6,,,
{12}6b>6[4:7],5,4,{24}3,5h[24:1],4,,5,,6,{48}3,4,{24}5,,4,,3,{48}6,5,{24}4,,5,,4h[12:1]/6,,5,3h[24:1],4,,3/5h[12:1],,4,6h[24:1],5,,6,5,4,5,4,3,4,3,2,3,,,
{12}5bw1[16:31],4,3,2,3,4,{24}5,3h[24:1],4,,3,,2,4h[24:1],3,,4,,5,3h[24:1],4,2h[24:1],3,,2,4h[24:1],3,5h[24:1],4,,5,4,3,4,3,2,5,4,3,25,,,
{12}4bw8[16:31],5,6,{24}7,5h[24:1],6,,5,,4,{48}6,7,{24}5,,6,,7,{48}5,4,{24}6,,5,,4/6h[12:1],,5,7h[24:1],6,,7/5h[12:1],,6,4h[24:1],5,,4,5,6,5,6,7,4,5,6,47,,,
{8}3h[1:1],,,,,,8,,6h[4:3],5,3,,,,4h[4:1],,3h[4:1],,2h[4:1],,1h[4:1],,{12}8,7,6,{8}4^1[8:3]/5^8[8:3],,,,,,27,,
{16}4q5[16:15],,5h,,3h,,4h,2h,3h,1h,4h,2h,5h,3h,6h,4h,7p4[16:15],,5h,6h,4h,5h,3h,4h,2h,3h,2h,5h,2h,7h,2h,1h,2qq5[16:27],3h,4h,5h,6h,5h,4h,3h,4h,5h,6h,7h,8h,7h,6h,5h,4h,5h,6h,7h,6h,5h,4h,3h,2h,1h,8h,7h,2b/6^1[16:1],,,,
(270)
{24}1b/6b,2,3,{8}4,5V31[4:1],,1v6[4:1],,6V41[4:1],,8b,8,8,8,{24}17,26,35,{8}4,8,,4b/5b,35,25,15,,15,16,17,1b/8b,2h[8:1],3b,4h[8:1],5,4b/6b,4b>8[8:1]/7b,48,
{24}8b/4b,7,6,{8}5,4V68[4:1],,8v3[4:1],,3V58[4:1],,1b,1,1,1,{24}82,73,64,{8}5,1,,5b/4b,64,74,84,,84,83,82,8b/1b,7h[8:1],6b,5h[8:1],4,5b/3b,{16}2b/5b,6,7,8,
{8}1b-5[8:1]/4h[2:1],,1,,8-4[8:1],,4/8,3,2h[4:1]/7-3[8:1],,7,1h[8:1],6-2[8:1],,68,,5b-1[8:1]/8h[2:1],,5,,4-8[8:1],,4/8,7,3-7[8:1]/6h[4:1],,3,5h[8:1],2^7[8:1],,24,,
{16}3b,5,3b,5,2b,6,2b,6,1b,7,1b,7,{32}8b,71,62,53,{8}4b,
{16}6b,4,6b,4,7b,3,7b,3,8b,2,8b,2,{32}1b,28,37,46,{8}5b,
{16}2b,4,2b,4,{32}2b,13,48,57,{8}6b,{16}7b,5,7b,5,{32}7b,86,51,42,{8}3b,
{16}2h[4:1],1b,8b-2[28.4#74:1],7b-1[29.2#71:1]*-2[29.2#71:1],6h[4:1],5b,4b-6[31.8#61:1],3b,4h[4:1],5b,6b-2[36#58:1]*-3[36#58:1],7b-3[37.25#53:1],8h[4:7],1b,2b,3b-5[43.3#46:1]*-5[43.3#46:1],
{1}4h[2:3],,
{24}2b/1h[8:1],3,4,5,,,8b/2h[8:1],7,6,5,,,1b/8h[8:1],2,3,4,,,7b/1h[8:1],6,5,4,,,
{8}2b-5[8:1]/6b,2h,7-4[8:1],7h,1-5[8:1],1h,8h,8h,
{24}8b/2h[8:1],7,6,5,,,1b/7h[8:1],2,3,4,,,8b/1h[8:1],7,6,5,,,2b/8h[8:1],3,4,5,,,
{8}1bs5[2:1]/2h,3h,4h,5h,6h,7h,{16}8,1,8,1,
{24}2b/7h[8:1],3,4,5,,,8b/2h[8:1],7,6,5,,,1b/8h[8:1],2,3,4,,,7b/1h[8:1],6,5,4,,,
{8}2b-5[8:1]/6b,2h,7-4[8:1],7h,1-5[8:1],1h,8h,8h,
{24}8b/2h[8:1],7,6,5,,,2b/1h[8:1],3,4,5,,,7b/8h[8:1],6,5,4,,,1b/7h[8:1],2,3,4,,,
{8}1h/8b,2h/7,3h/6b,2h/7,{16}8b,1,8b,1,8b,1,8b,1,
{24}2b/7h[8:1],3,4,5h,,,8b/2h[8:1],7,6,5h,,,1b/8h[8:1],2,3,4h,,,7b/1h[8:1],6,5,4h,,,
{24}1b,2,3,4h,5,6,1,8,7,6h,5,4,2,1,8,7h,6,5,{8}4h,4h,
{24}4b/6h[8:1],3,2h,1h,,,4b/3h[8:1],5,6h,7h,,,4b/5h[8:1],3,2h,1h,,,6b/4h[8:1],7,8h,1h,,,
{24}3b,4,5,7h,6,5,2h,3,4,8h,7,6,2,3,4,7h,6,5,{16}1,8,1,8,
{24}1b/7h[8:1],2h,3h,4h,,,7b/8h[8:1],6h,5h,4h,,,2b/1h[8:1],3h,4h,5h,,,8b/2h[8:1],7h,6h,5h,,,
{24}2b,3,4,2h,3,4,2h,3,4,2h,3,4,1bp5[8:1],2,3,1b,2,3,{4}1b,
{28}2b/6h[28:3],3,4,5,4,3,2,{8}1b/7b,27,{28}7b/3h[28:3],6,5,4,5,6,7,{8}8b/2b,72,
{32}2b/6h,5,4h,3,6h,5,4h,3,7b,6h,5,4h,7,6h,5,4h,
{4}8bz4[8:1],,
{8}2b-5[8:1]/6,7,28,8,7b-4[8:1]/3,2,17,1,
{32}2b,3,4,5,{8}8h[8:1],{32}1b,2,3,4,{8}7h[8:1],{32}2b,3,4,5,{8}8h[8:1],{32}3b,4,5,6,{8}1h[8:1],
{8}4b-8[8:1],7,46,5,6b-1[8:1]/2,3,6/4w8[8:1],4,4b,,1b/7b,2b/6b,3b/5b,4b/6b,3b/7b,2b/8b,
{8}7b-4[8:1]/3,2,7/1h,1h,2b-5[8:1]/6,7,8h/2,8h,
{32}7b,6,5,4,{8}1h[8:1],{32}8b,7,6,5,{8}2h[8:1],{32}7b,6,5,4,{8}1h[8:1],{32}6b,5,4,3,{8}8h[8:1],
{8}5b-1[8:1],2,5/3h,4h,3b-8[8:1]/7,6,3/5h,5h,3b/6b,36,2b/7b,27,1bw5[8:1]/8bw4[8:1],,1b/8b,,
{16}8b/1b,2,3,4,5b/1b,2,3,4,5b/1b,8,7,6,5b/1b,8,7,6,
{16}5b/1b,2,3,4/5h[8:1],3b,2,1,8h[8:1]/4,3b,2,1h[8:1]/5,4,3b,2/6h[8:1],3,4,
{16}5b/8b,7,6,5,4b/8b,7,6,5,4b/8b,1,2,3,4b/8b,1,2,3,
{16}4b/8b,3h/7,2h/6,1h/5,6b,4h/7,3h/8,1/2h,3b,2h/5,1h/6,7/8h,6b,4h/5,3h/6,2h/7,
{24}1b/8b,2,3,4b,5,6,1b/7h,6h,5h,4h,3h,2h,
{32}1h/8b,7,6,5,4b,3,2,1,4b/8h,1h,2h,3h,4h,5h,6h,7h,
{32}8h/1,2,3,4,1,2h,3h,4h,8,1h,2h,3h,8,1,2,3,
{40}8h,7h,6,5,4,8h,7h,6h,5,4,3/8h,1h,2,3,4,8h,1h,2h,3,4,
{8}5/1b,1b-5[8:1],,1,,1b,1bw5[8:1],,1h,,
{16}1,2,3,4,2,3,4,5,3,4,5,6,
{4}1h[8:1],2h[6:1]/8h[12:1],3h[12:1]/7h[6:1],4h[6:1]/6h[12:1],
{4}5h[4:1],
{24}3b,4,5,6,5,4,3,4,5,6,5,4,3,4,5,6,5,4,3,4,5,6,5,4,3,4,5,6,5,4,3,4,5,6,5,4,3,4,5,6,5,4,3,4,5,6,5,4,3,4,5,6,5,4,3,4,5,6,5,4,3,4,5,6,5,4,
{1}3b,,
