&title=蒼の音階
&artist=涼海ネモ
&first=0.006
&des=Yoshino
&lv_5=13+
&lv_6=13+
&inote_5=(176){1},
{8},5,5,5,4h[8:3],{16}A3,A2,A1,,8x,,,,
{8}7,7,7,6h[8:3],8,1,2,
{8},4,4,4,5h[8:3],{16}A6,A7,A8,,1x,,,,
{8}2,2,2,3h[8:3],1,8,7,
{8},2,2,2,1h[8:3],{16}A8,A7,A6,,5x,,,,
{8}6,6,6,5h[8:3]/4,3,2,1,
{8},7,7,7,8h[8:3],{16}A1,A2,A3,,4x,,,,
{8}3,3,3,4h[8:3]/5,6,7,8,,
{8}3,4-8[8:1],5,6hx[2:1],,7-3[8:1],7,
{8},,5-1[8:1],4,3hx[2:1],,2-6[8:1],2,,,,
{8}5x,4,3,5,6,3,2,6,7,1h[8:3],8h[4:1],,,,
{8}8,7,6-1[8:1],6,4,3,2-5[8:1],2,,,
{8}3-8[8:1],3,5,6,7-4[8:1],7,,,
{8}1,2,3,4,4h[4:1],,6,6h[4:1],,5,B4,B3,B2,,
{8}7,7,6,5,5h[8:5],B4,3,4,,,,2,2h[4:1],1,1h[8:3],3>7[4:1],,3x,,
{24}A7,A6,A5,A4,A3,A2,{8}1x,1hx[4:1],,8,8-4[8:1],,1b,,,,,
{8}2,2,3,4,4h[8:5],B5,6,5,,,,67,67,56,56,4>1[8:1],,{24}A4,A3,A2,A1,,,
{8}8hx[4:1],,1,1-5[8:1],,7-3[8:1],7,,4bh[1:1],,,,,E3,E7,,
{4}5<8[4:3],,,,2q3[4:3],,,,4V68[4:3],,,,1h[2:1],,B1,
{8}8-4[8:1],,8,,1-5[8:1],28,1,,3-1[8:1],6,7,8-4[8:1],1x,2,3h[4:1],,,
{8}5,6-8[8:1],6,5-2[8:1],,1,1h[4:1],,3,2-6[8:1],1,8-4[8:1],1,2b,,
{8}3,3h[4:1],5h[4:1],{24}A6,A7,A8,,,,{8}1x,1hx[4:1],,,
{8}8-4-6-1[8:3],2,8,2,3,4h[4:1],,,,1-7[8:1]/4,4,14,4,1-6[8:1]/4,4,14,4,1-5[8:1]/4,4,1/4w8[8:1],4,4bx,,
{8}7x<4[8:1],8,1/7,2,8<5[8:1],1,2/8,,7-4[8:1],8,1-4[8:1]/7,2,6-2[8:1]/1,5,4/6,,
{8}7-2[8:1],3<5-1[4:1]b,7-4[8:1]b,3,7V13[4:1],,3xV57[4:1],3x,,1,2,3,4-8[8:1],5,4x/6,,
{8}5h[8:1],B5,4-2[8:1],4,5-7[8:1],5,4-8[8:1],4,5-1[8:1],5,2,2h[8:1],3,3h[8:1],4-6[8:1]*-2[8:1],,,,
{8}8-4[8:1],7,1-5[8:1],2,7-4[8:1],6,3-8[8:1],2,5-1[8:1]/3,6,4-8[8:1]/5,3,6-1[8:1]/4x,5,3,3h[4:3],
{16}8bx,,A7,A6,A5,,4x,,,,{8}5,26,17,8b-5-7-3[2:1],,1,2h[8:3],,,A3f,,
{16}1b/6h[8:5],,A2,A3,A4,,5x,,,,{8}4,73,82,1b-4-2-6[2:1],,8,7h[8:3],,,A6f,,
{16}4b/7b,,6,5,6,,4V68[4:1],,,,1,,2,,3,,4hb[8:3],,,,1V75[4:1],,1,,,,2,,3,,,,
{16}8b/1b,,3,4,3,,6,5,6,,3,4,2,,6,5,7-3[8:1],,3,,7,,4h[24:5],,
{24}2,1,8,37,26,15,4-8[8:1]/8,,,,,,
{8}A2,,3,3h[4:1],,1,1h[2:1],,4,,5-2[4:1],5,,1-6[4:1],1,,
{8}3,3h[8:7],,5,5h[8:1],,6h[8:1],,7-1[8:1]*-5[8:1],,,,,
{8}24,24,24,3b-1[8:1],,8-4[8:1],8,,2,2,,3b-5[8:1],,6-2[8:1],6,,4,4,,
{8}A5,A4,A3,A2,7-3[8:1]/1-5[8:1],,17,,Ch[4:1],,4,4h[4:1],,6,6h[4:1],,
{4}5>1[2:1],7,6,5,4<8[2:1],2,3,4,
{8}5s1[4:1],,,7-3[8:1],7,,{16}1x,,1x,,2b/4b,,3,3,3,,2x/4x,,25,,26,,
{8}2/7-4[8:1],,3-8[8:1],,6,,2v5[8:1]/6v1[8:1],,2x/6x,,48,{16}7,5,6,,{8}4-2[8:1],4-8[8:1],,,,
{16}1,7,1,7,2,6,2,6,3,5,3,5,2,6,1,7,3,5,1,7,2,8,4,6,
{32}3b,4,5,6,7,8,1,2,
{16}3x/7x-5-1[4:1],,4,,57,,4,3,2,,2,,8,,,,
{16}1,7,1,7,1h[4:1],,8,,7-3-5[4:1],,6,,7b/2h[4:1],,,,,,,,
{16}3,5,3,5,4,6,4,6,5b-1[8:1],,,,7,,7,,26,,5,3,4-8[8:1],,1,,1h[4:1],,,,
{16}5,,6,,7,,8,1,8<5[8:1],,2,,83,,,,6,4,7,3,8-4[8:1],,2-5[8:1],,8,,2,,Cf,,,,,,
{8}5<8[8:1],4,3,2,1>4[8:1],8,7,6,5,5-1[8:1],5,4-2[8:1],4,8h[8:1],,
{16}6x/2x-4-8[4:1],,5,,42,,5,6,7,,7h[8:1],,1,,,,
{16}8,2,8,2,8h[4:1],,1,,2-6-4[4:1],,3,,2b/7h[4:1],,,,,,,,
{16}6,4,6,4,5,3,5,3,5b-1-6-8[8:3],,,,2,,2,,3,,4,,5h[4:1],,7,,8,,,,
{8}3,2,1-5[8:1],1,8-4[8:1],8,1-3[8:1],1,8-6[8:1],8,1>4[8:1],1<6[8:1],1x-5[8:1],1x,1x,,,
{8}4>1[8:1],5,6,7,8<5[8:1],1,2,3,4qq8[8:3],5,5,6,6,7-4[8:1],,78,,
{16}4b/7b,,6,6,5-2[8:1],,6,,5-8[8:1],,7,,5,,3,,
{16}5b/2b,,3,3,4-7[8:1],,3,,4-1[8:1],,2,,4,,6,,
{8}35,35,46,46,25,47,25,47,1b/5,2b/6,3b/7,4b/8,,
{16}45,,1-5[8:1]/8-4[8:1],27,36,,1b/8b,,,,
{8}3,3h[8:3],,4,4,5,4/6V82[4:1],,2V86[4:1],,5,4,3-8[8:1],3,
{8}7-3[8:1],7,1-5[8:1],1,8-4[8:1],8,2-6[8:1],2,7,7,8,8h[4:1],,1,1,1,
{32}1b,2,3,,5,,,,4,,6,,4,,6,,4h[4:1],,,,,,,,
{16}7,5,7,5,7,5,6,4,6,4,6,4,5b/3b,,,,
{16}3,5,3,5,3,6,4,6,4,6,3,7,3,7,3,8,2,8,2,8,
{8}1-3[8:1],1-7[8:1],1-5[8:1],1,1,,
{32}4b/8b,37,26,15,,,,,
{16}2,6,2,6,1,7,1,7,3,5,3,5,4,6,4,6,4b,5,4b,6,4b,5,4b,6,4bw8[8:1],,,,,,,,
{16}1b,6,5,6,1b,6,5,6,1b,6,5,6,1b,6,5,6,2,6,2,6,{24}3,4,5,6,7,8,15,4,3,2,1,8,37,4,5,6,7,8,
{8}1hb[8:3],{16}A2,A3,A4,,5x,,,,
{8}6,6,6,5h[8:3],4,3,2,
{8},1,1,1,8h[8:3],{16}A7,A6,A5,,4x,,,,
{8}3,3,3,4h[8:3],5,6,7,
{8},2,2,2,1h[8:3],{16}A8,A7,A6,,5x,,,,
{8}6,6,6,5h[8:3]/4,3,2,1,
{8},7,7,7,8h[8:3],{16}A1,A2,A3,,4x,,,,
{8}3,3,3,4/5-1[8:1],6,7,8b,,
E
