&title=念张师(Kawaii Bass Remix)1.25x
&artist=Suno AI
&first=0.02
&des_5=巧乐兹
&lv_5=13+
&des=巧乐兹
&clock_count=4
&inote_5=(166){4},,,,,,
(166.762){4}4h[16:1]/5h[8:1],
(164.685){4}4h[16:1]/5h[16:1],
(166.279){8}2V41-5-8-6[8:5]/4,,,,,,,5V73[8:3]*-1[8:2],
,,,,A2,{24}B2,C,B6,,,,A2,,,
(166.201){8}1xV72-6-3-5[8:5]/7x,,,,,,,7V15-3[8:3],
{4},,2-6[8:1],2b,
(166.807){8}3,3,4h[8:1],{16}3,4x,,4,3x,,{8}34,25,
{8}6,6,5h[8:1],{16}6,5x,,5,6x,,{8}65,74,
{8}8h[4:1],1,2,3,4-2[8:1],4,8-4[8:1],8,
{4}3xV15[8:3]*-7[8:1],3b,8-6[8:1],,
(166.867){4}7h[4:3]/Cf,B3/E3/B2,,B6/B5,6h[4:1],4,{8}6,5,47,,
{4}2h[4:3]/C,B7/E8/B8,,B5/B4,3h[4:1],5,{8}3,4,52,,
(166.861){4}7^4[4:1]/C,B3/E3/B2,,B6/B5,4h[4:1],{8}6,5,7,,47,,
{4}1-3[8:1],7-1[8:1],2-6[8:1],7-5[8:1],,3,Cf,,
(167.038){4}5-7[8:1],3,
{16}6-8[8:1],,,2,,,3h[4:1],,,,5,,{16}6,4,,5xh,1-3[8:1],,6,,7,,8,,
{4}2-4[8:1],6,
{16}3-5[8:1],,,7,,,8h[4:1],,,,1,,{16}2,7,,1xh,5-7[8:1],,2,,3,,4,,
(167.079){4}6p4[8:3]/1h[4:1],,1-5[8:1],7^4[8:1],2-6[8:1]*-4[8:1],,3-5[8:1],7-3[8:1],
{4}1^4[8:1],1^6[8:1],3xq5[8:4],8x-4[8:2],,,Cf,{8}3,5,
(167.174){4}4qq1[8:7],B2/B3/E3,,6,,E7/B6/B7,,B2/B3/E3,
{4}7qq4[8:7],B6/E6/B5,,2,,B1/E2/B2,,B6/E6/B5,
(167.239){4}6^3[4:1],3^8[4:1],8^5[4:1],5^2[4:1],2^7[4:1],7-4[4:1],4-1[4:1],1-6[8:1],
{4}2-4[8:1],1x-5[8:1],8-6[8:1],,
{16}1,8,3,6,2,7,4,5,{4}1w5[8:1],1b/Cf,
(167.437){4}1x-5[8:1]/8bx,1/6^3[8:1],6/8-3[8:1],8/1-5[8:1],{4}1/4-7[8:1],5x^2[8:1]/4x,8-4[8:1]/5,8/3-7[8:1],
{4}3/5-2[8:1],5/1^6[8:1],4^1[8:1]/1,8^5[8:1]/4,2^5[8:1]/8,1-6[8:1]/2,4-1[8:1]/1,8-4[8:1]/4,
(167.205){4}2-7[8:1]/8,6-1[8:1]/2,2-5[8:1]/6,2/6^3[8:1],6/8-3[8:1],1-5[8:1]/8,4^7[8:1]/1,2-6[8:1]/4,
{4}8^5[8:1]/2,3-8[8:1]/8,7-3[8:1]/3,5-1[8:1]/7,8^5[8:1]/5,4-8[8:1]/8,7^4[8:1]*^2[8:1]/4,7b,
(168.001){4}1x-5[8:1]/8bx,1/6^3[8:1],6/8-3[8:1],8/1-5[8:1],{4}1/4-7[8:1],5x^2[8:1]/4x,8-4[8:1]/5,8/3-7[8:1],
{4}3/5-2[8:1],5/1^6[8:1],4^1[8:1]/1,8^5[8:1]/4,2^5[8:1]/8,1-6[8:1]/2,4-1[8:1]/1,8-4[8:1]/4,
(167.698){4}2-5[8:1]/8,1-6[8:1]/2,12,37,5^8[8:1],8,1^4[8:1],4,
{4}1>5[4:1],5<1[4:1],1>5[4:1],5V71[4:1],1V35[4:1],5,8-6[8:1],1b,
(168.033){8}2,2,4h[8:1],{16}3,4x,,4,3x,,{8}34,15,{8}7,7,5h[8:1],{16}6,5x,,5,6x,,{8}65,84,
{8}2,2,4,{16}3,4,2,4,3,,{8}25,48,{8}7,7,5,{16}6,5,7,5,6,,{8}47,15,
{4}5>5V31V75[1:1],
{16}E1,E2,E3,E4,E5,E6,E7,E8,
{16}B1,B2,B3,B4,{4}B5f,C,,{8}2,1,
(167.883){4}3h[4:1]/Cf,4,{16}3h[8:1],,,4,{8}3,2,
{4}1h[4:1],6,{8}3,4,51,,
{4}6h[4:1]/C,5,{16}6h[8:1],,,5,{8}6,7,
{4}8h[4:1],3,{8}6,5,48,,
(168.032){4}1h[4:1]/C,8,{16}1h[8:1],,,8,{8}1,2,
{4}3h[4:1],7,{8}1,8,37,,
{4}8h[4:1]/C,1,{16}8h[8:1],,,1,{8}8,7,
{4}6h[4:1],2,{8}8,1,62,,
(168.225){4}3^8[8:1],5,{16}4^1[8:1],,,5,{8}4,6xh,
{4}7h[4:1],1,{8}7,8,15,,
{4}5^8[8:1],3,{16}6^1[8:1],,,5,{8}6,4xh,
{4}3h[4:1],1,{8}2,1,84,,
(168.146){4}4-2[8:1],6-4[8:1],1-5[8:1],7^4[8:1],2-6[8:1]*-4[8:1],,3-5[8:1],7-3[8:1],
{4}1^4[8:1],1^6[8:1],3xqq4[8:5],5pp4[8:3],,,Cf,{8}4,5,
(168.668){4}3q6[8:5],C,7xpp2[8:7],,,E1/B8/B1,,B3/B4/E4,
{4}7qq4[8:7],B6/E6/B5,,3qq8[8:7],,B1/E2/B2,,B6/E6/B5,
(168.109){4}1>6[4:1],6<3[4:1],3x<8[4:1],8x>5[4:1],5x<2[4:1],2x>7[4:1],7x>4[4:1],,
{4}7-5[8:1],8-4[8:1],1-3[8:1],,
{16}1,8,3,6,2,7,4,5,{16}1b-5[8:1],1bx,1bx,1bx,{4}1bx/Cf,
(168.444){8}1-5[8:1]/8bx,2,1/7^4[8:1],6,7/8-3[8:1],1,8/5-1[8:1],6,5/2-4[8:1],3,5^8[8:1]/2,6,2-6[8:1]/5,1,2/7-4[8:1],8,
{8}7/3-5[8:1],2,3/1-7[8:1],8,4^1[8:1]/1,3,8^5[8:1]/4,7,2-5[8:1]/8,3,1-6[8:1]/2,8,4-1[8:1]/1,3,8-4[8:1]/4,7,
(168.697){8}2-7[8:1]/8,1,6-1[8:1]/2,5,2-4[8:1]/6,3,2/8^5[8:1],7,8/3^8[8:1],2,4^7[8:1]/3,5,2-6[8:1]/4,1,8-4[8:1]/2,7,
{8}1-4[8:1]/8,2,6-1[8:1]/1,5,2-6[8:1]/6,3,4-8[8:1]/2,5x,1^4[8:1]/4,2,7-3[8:1]/1,6,1^4[8:1]*^6[8:1]/7,,1b,,
(168.837){8}1-5[8:1]/8bx,2,1/7^4[8:1],6,7/8-3[8:1],1,8/5-1[8:1],6,5/2-4[8:1],3,5x^8[8:1]/2,6,2-6[8:1]/5,1,2/7-4[8:1],8,
{8}7/3-5[8:1],2,3/1-7[8:1],8,4^1[8:1]/1,3,8^5[8:1]/4,7,2-5[8:1]/8,3,1-6[8:1]/2,8,4-1[8:1]/1,3,8-4[8:1]/4,7,
(169.363){8}2-5[8:1]/8,3,1-6[8:1]/2,8,{4}12,37,5^8[8:1],8,1^4[8:1],4,
(169.38){4}1>5[4:1],5<1[4:1],1>5[4:1],5V71[4:1],1V35[4:1],5,8-6[8:1],1b,
(169.351){8}18,2,24,3,4-8[8:1]/5,6,7^4[8:1],,1-5[8:1],1,6^1[8:1],6,2^5[8:1],2,,,
{8}81,7,75,6,5-1[8:1]/4,3,2^5[8:1],,8-4[8:1],8,3-1[8:1],3,7-5[8:1],7,,,
(169.515){4}4-2[8:1],6-4[8:1],3V15[4:1],7,6-4[8:1],2-6[8:1],8-2[8:1],,{2}B2/B3/E3,B7/B6/E7,
{4}2xh[2:1],6xh[4:1],{32}D3f/D7,A3/A7,D4/D8,A4/A8,D5/D1,,,,{4}3x/7x,
(169.914){8}2,2,4h[8:1],{16}3,4x,,4,3x,,{8}34,15,{8}7,7,5h[8:1],{16}6,5x,,5,6x,,{8}65,84,
(169.373){8}2,2,4,{16}3^8[8:1],4,2,4,3,,{8}7-5[8:1],7,{8}4,4,6,{16}7^4[8:1],8,6,8,7,,{4}1,
(164.175){4}3p2[2:1],,2x^4[4:1],,
(161.386){4}8V62[8:3]*-4[8:1],8,
(155.232){8}3x-1[8:1],,,,
(154.307){4}8V26-4[8:4],,,{8},7-3[8:5]b/1-5[8:5]b,,,{4},,,E
