&title=soto
&artist=utauredox
&first=-0.003
&des=leopard
&lv_4=12+
&lv_5=14
&inote_4=(136.5)
{87},{4},,,,
{8}45,,2/7-2[4:3],,,1h[4:1],,,,,,,{16}4,,,4,6,,,,
{8}81,,6/3-6[4:3],,,5h[4:1],,,,,,,{16}7,,,7,3,,,,
&inote_5=(136.5)
{87},{4},,,,
{16}1,,,1,4,,,4,,,3,,5,4,,6,,,2/7,,,2/7,,,3,,,8,2,,7,1,
{16}7,1,,1,4,,,4,,,2,,5,4,,7,,,3/6,,,3/6,,,5,,,4,7,,3,8,
{16}3,8,,8,5,,,5,6,,3,4,1,5,3,4,,2,5,,,5,,,6/4,,,6/4,3/5,,,3/5,
{16}2,,,8,1,,,7,3,,6,5,8,4,6,5,
{32}1,8,7,,,,8/3,4,5,,,,2/7,6,5,,,,6/1,2,3,,,,8b/5,4,3,,,,,,
{16}1,4,2,5,4,6,2,8,{32}3,4,5,,8,,3,4,5,,
{16}8,2,2,{32}6,5,4,,1,,6,5,
{16}4,1,7,2,8,3,5-3[8:1],4h[16:1],2h[8:1],,,,
{16}2,,8,1,6,5,8,4,{32}7,6,5,,3,,7,6,5,,
{16}3,7,7,{32}2,3,4,,6,,2,3,
{16}4,6,1,8,3,6,4-6[8:1],5h[16:1],7h[8:1],,,,
{16}7,,2,8,4,5,1,6,{32}4,3,2,,6,,4,3,2,,
{16}7,2,2,{32}6,7,8,,2,,6,7,8,,
{16}2,5,3,1,4,7-4[8:1],5h[16:1],1h[8:1],,,,
{16}1,,6,7,4,5,2,3,{32}1,8,7,,3,,1,8,7,,
{16}3,5,5,{32}1,2,3,,5,,1,2,3,,{16}6,8,8,
{12}6b,3v6[12:1],5b-2[12:1],,3b,5b,
{16}3,7,2,6,3,5,1>3[16:1],,{32}7,6,5,,1b,,7,6,5,,,,
{32}3,,6,,7-4[16:1]/2,1,8,,,,2,1,8/7b,,,,
{16}3>1[16:1],,6,6,3b-7[16:1],,5h[8:1],,,,
{16}5-8[16:1],4,6,2,5b,3,3<5[16:1],,{32}1,8,7,,3b,,1,8,7,,,,
{32}4,,7,,8-5[16:1]/3,2,1,,,,3,2,1/8b,,,,
{16}4<6[16:1],,7,7,4b-1[16:1],,8h[8:1],,,,
{16}8-3[16:1],5,6,3,8b,4,4>1[8:1],,{32}6,7,8,,4b,,6,5,4,,,,
{32}6,,6,,4-1[16:1],3,2,,,,8,7,6/4b,,,,
{16}7-3[16:1],,5,5,7b-4[16:1],,2h[8:1],,,,
{16}2-8[16:1],5,3,7,2b,6,6<1[8:1],,{32}4,3,2,,6b,,4,5,6,,,,
{32}8,,8,,3-6[16:1],4,5,,,,7,8,1/3b,,,,
{16}5,,{12}8b,1-6[12:1],8bv5[12:1],,1b,8b,
{16}1-4[16:1],,7,7,1bV72[6:1],,6,,
{12}5-7[12:1],5>3[12:1],5v8[12:1],5,,,
{16}1<6[16:1],,3,3,1bV38[6:1],,2,,
{12}5<7[12:1],5-2[12:1],5q1[12:1],5,,,
{16}4-7[16:1],,5,5,4b,,6,,
{12}8-3[12:1],3-7[12:1],7-5[12:1],4b/8,,,
{16}2-6[16:1],,7,7,2b,,5,,
{12}4-7[12:1],7-3[12:1],3-1[12:1],4/8b,,,
{16}6q2[16:1],,4,4,6b,,3,,
{12}4-8[12:1],3-5[12:1],2-6[12:1],4b,3,2,
{16}1-5[16:1],,7,7,1b,,8,,
{12}6-2[12:1],7-5[12:1],8-4[12:1],6b,7,8,
{16}6-2[8:1],,3,3,6b,,4,,
{12}4-2[12:1],6-8[12:1],5-1[12:1],4b,6b,5b,
{16}3-5[16:1],,8,8,3b,,7,,
{12}6b,2-5[12:1],8bv3[12:1],,2b,8b,
{16}4,,,1,,6,6,2,6,,4/7,,5,3,8,2,
{16}7,,,1/6,,5,2,4,1,,6/7,,1,4,3,6<1[16:1],
{16}2h[16:3],,,6,,4,5,2,7,,6/8,,1,4,3,6-1[16:1],
{16}3h[16:3],,,6,,3,5,8,6,,1/2,,3,7,5,6q2[16:1],
{16}4h[16:3],,,6,,4,7,1,5,,2/4,,8,7,4,6v3[16:1],
{16}5h[16:3],,,6,,1,8,2,5,,1/7,,6,4,5,1w5[16:27],
{16}2h[16:3],,,7,,2,2,8,8,,2,,8,1,6,2,8h[16:3],,,3,,6,2,6,
{12}1-5[16:1],1,1,1,
