&title=メリーバッドエンド
&artist=まふまふ、初音ミク
&first=0
&des=匿名希望
&wholebpm=100.000
&lv_5=13+
&des_5=
&inote_5=(200)
{8},,,,,,,,
{1}8>5[4:2]/6h[4:3],
{1}6pp7-5[4:2]/5v2^5[4:2],
{1}5>8[4:2]/7h[4:3],
{1}7qq6-8[4:2]/1v3^8b[4:2],
{1}5q7[4:2]/1h[4:3],
{1}6pp7-5b[4:2]/3qq1^2-4b[4:2],
{4}7-3-7[2:1]/4h[4:3],,,,
{16}1/5,,,,7/3,,,,4/2,,6,5,7,,,,
{8}24,2,35,3,6,4h[4:1],,7h[4:1],,8^5[8:1],1,1,2-6[8:1],,2bx,,
{8}57,7,46,6,2,8h[4:1],,1,7V51[4:1],,3,3,2-6[8:1]*-4[8:1],,2bx,,
{8}75,7,64,6,3,5h[4:1],,2h[4:1],,1^4[8:1],8,8,7-3[8:1],,7bx,,
{8}42,2,53,3,7,1h[4:1],,8,2V48[4:1],,6,6,7-3[8:1]*-5[8:1],,7bx,,
{8}2h[4:1],,8,8,4h[4:1],,7,,
{8}3h[4:1],,8,8,5h[4:1],,7,,
{8}2h[4:1],,6,6,4h[4:1],,8,,
{8}3h[4:1],,6,6,5-1b[8:1],,8,,
{8}7h[4:1],,1,1,5h[4:1],,2,,
{8}6h[4:1],,1,1,4h[4:1],,2,,
{8}7h[4:1],,3,3,5h[4:1],,1,,
{8}2/6,,37,,4b/8b-4[8:1],,,,
{8}1,1-5[8:1],,7,,6-8[8:1],5,4,
{8},5-1[8:1],4,3,,2,1,3,
{8}8h[4:1],,4-2-5-1b[8:3],4,8,8,6,6,
{8},7-5[8:1],8,7,3-1[8:1],4,3,,
{8}8,8-4[8:1],,2,,3-1[8:1],4,5,
{8},4-8[8:1],5,6,
,6,5,7,
{8}4h[4:1],,7,3,6,2,5,1,2^5[8:1]/6,,2/7p3[8:1],,1w5[8:1]/7,,1bx,,
{8}3xh[4:1],,B5,7h[4:1],,B1,,3xh[8:2],,E6,E2,E7,E3,E8,E4,,
{8}4/3h[4:1],,B7,6h[4:1]/5,,B2,,3xh[8:1],A7,3xh[8:1],B7,3xh[8:1],C,3xh[8:1],B3f,,
{8}6xh[4:1],,B4,2h[4:1],,B8,,6xh[8:2],,E4,E8,E3,E7,E2,E6,,
{8}3xh[1:1],,,,,,,,8-5[8:1],,4-1b[8:1]*-7[8:1],,A4/D5/D4,,,,
{16}2b/6b,,4h[8:1],,5,,2-6[8:1],,5-8[8:1],,2,,5,,4V28V24[2:1],,
{16},,7,,7,,6b,,,,8,,8,,2b/6,,
{16},,8-4[8:1],,3-8[8:1],,8,,3,,5h[4:1],,,,1b>6[4:1],,
{16},,8x,,8,,1-6[8:1],,5-2[16:2],,1,,5,,,,
{16}7b/3b,,5h[8:1],,4,,7-3[8:1],,4-1[8:1],,7,,4,,5<1<5[2:1],,
{16},,2,,2,,3b,,,,1,,1,,7b/3,,
{16},,1-5[8:1],,6-1[8:1],,1,,6,,4v3-1[4:1]*v5-7[4:1],,,,4b,,
{16},,,,2x/6x,,1^4[8:1],,,,1,,7,,,,
{16}2b/8b,,3h[8:1],,7,,8p4[8:1],,2^7[8:1],,8,,2,,5h[4:1],,
{16},,1-5[8:1],,8,,7/1b,,,,6,,4,,3b/7b,,
{16},,2-5[8:1],,7^2[8:1],,2,,7,,4h[4:1],,,,1bV75[4:1],,
{16},,3,,3,,2-7[8:1],,6-3[16:2],,2,,6,,,,
{16}2b/4b,,3h[8:1],,1,,5b/7b,,6h[8:1],,8,,15,,3h[4:1]/7,,
{16},,8-4[8:1],,1,,2/8b,,,,3,,5,,6b/2b,,
{16},,6-1[8:1],,2-5[8:1],,6,,2,,7h[4:1],,,,3b,,
{8},2-6[8:1],1,2,8-3[8:1]*-5b[8:1],7,8,,
{8}1x,,2x/C,,3x/B5/E6/E5,,A7hf[4:1]/A6hf[8:3]/E7hf[8:4]/B6hf[8:6]/B7hf[8:5]/4x,,5bx,4bx,3bx,2bx,1bx,,,,
{8}5x-8b[4:3],,,,,,4,,
{8}5-8b[4:3],,,,,,6,,
{8}5<1b[4:3],,,,,,5,,
{8}5>1b[4:3],,,,,,,,
{8}5x-8b[4:3],,,,,,4,,
{8}5-8b[4:3],,,,,,6,,
{8}5-7^1b[4:3],,,,,,5,,
{8}5^3-1b[4:3],,,,,,,,
{8}4x-1[4:3],,,,,,3,,
{8}4-1[4:3],,,,,,5,,
{8}4v6-8[4:3],,,,,,4,,
{8}4^2v8[4:3],,,,,,,,
{8}5x-8b[4:3],,,,,,5,,
{8}5-2b[4:3],,,,,,5,,
{8}5^8q1^4b[4:4],,,,,,5,,5h[2:1],,,,C,,,,
{8}6xh[4:1],,B4/B3,2h[4:1],,B8/B7,,6xh[8:2],,D3,D7,E4,E8,D5,D1,,
{8}3/4h[4:1],,A1/D2/E2,5h[4:1]/6,,A8/D8/E8,,6xh[8:1],D4,6xh[8:1],B4,6xh[8:1],D5,6xh[8:1],B6f,,
{8}3xh[4:1],,B5/B6,7h[4:1],,B1/B2,,3xh[8:2],,D7,D3,E6,E2,D5,D1,,
{8}6xh[1:1]/Ch[8:1],,,,,,,,1^4[8:1],,5v2[8:1]*v8b[8:1],,B5,,,,
{1}4h[4:15]/6bpp5<4qq5b[4:14],
{1},
{1},
{1},
{8}3-5[8:1],,7,7-5[8:1],,2,,1bxpp1b[8:3],,,,,,6,6,7<2[2:1],
{8},Ch[2:1],,,,,,1xp8b[8:4],,,,,,,,,
{16}2b/6b,,4,4,5,,1/2-6[8:1],,3/8-5[8:1],,2,,8,,4b>6[4:1],,
{16},,6<4[4:1],,6,,5b,,,,5,,5,,6b/2,,
{16},,2/8-4[8:1],,3-8[8:1]/7,,8,,3,,5b<3[4:1],,,,3b-1-7-5[4:1],,
{16},,4x,,4,,3-1[8:1],,4-8[16:2],,3,,4b,,,,
{16}7b/3b,,5,5,4,,8/7-3[8:1],,6/1-4[8:1],,7,,1,,5b<3[4:1],,
{16},,3>5[4:1],,3,,4b,,,,4,,4,,3b/7,,
{16},,6/2-6[8:1],,5^8[8:1]/1,,2,,5,,1b-5-8[4:1]*-5-2[4:1],,,,1b,,
{16},,,,7x/3x,,8b^5[8:1],,,,8,,3,,,,
{16}4bx/7bx,,6,5,6,,5bx/2bx,,3,4,3,,6,,4h[4:1]/8,,
{16},,6^1[8:1],5,7,5,6b,,,,3,,5,,6b/2b,,
{16},,2v5[8:1]/8,,3/7^2[8:1],,2,,7,,4b-8-4[4:1],,,,4b>7[4:1],,
{16},,6,,6,,5-8[8:1],,1^4[16:2],,5,,1b,,,,
{16}7b/3b,,5,5,4,,2b/6b,,4,4,5,,37,,5bh[4:1]/1,,
{16},,3^8b[8:1],4,2,4,3b,,,,5,,5,,6b/2,,
{16},,7/1q5b[8:1],,6^1b[8:1]/2,,1,,6,,4xbv7b[8:1]*-1b[8:1],,,,4b,,
{16},,6x,5,7,,3,4,2,,7,5,6h[4:1],,,,
{32}1b,2,3,4,5,6,7,8,1,2,3,4,5,6,7,8,1,2,3,4,5,6,7,8,1,2,3,4,5,6,7,8,1,2,3,4,5,6,7,8,1qq2[8:3],2,3,4,5,6,7,8,,,,,,,,,,,,,,,,,
{8}3h[4:1]/7,,1-5[8:1],,4,4>8[4:1],,8<4[4:1],,4V28[4:1],,8q4b[8:1],,7,7,,
{8}6h[4:1]/2,,8-4[8:1],,5,5<1[4:1],,1>5[4:1],,5V71[4:1],,1s5b[4:1],,2,2,,
{8},48,48,,2xv4[8:1]/6xv8[8:1],,2bx/6bx,,4xh[384:1],3h[384:1],2h[384:1],1h[384:1],8h[384:1]/A4,7h[384:1]/A3/B3,6h[384:1]/A2/B2/E3,5h[384:1]/A1/E1/E2/B1,
{4}4bxh[4:1],2h[4:1],1h[4:1],3h[4:1],5h[4:1],8h[4:1],1h[4:1],4h[4:1],
{4}6h[4:1],7h[4:1],5h[4:1],8h[4:1],1h[4:1],3h[4:1],7v8-2[4:1],,
{4}5bxh[4:1],7h[4:1],8h[4:1],6h[4:1],4h[4:1],1h[4:1],8h[4:1],5h[4:1],
{4}3h[4:1],2h[4:1],4h[4:1],1h[4:1],8h[4:1],6h[4:1],{16}2,,4,5,3-8b[8:1]/6-1[8:1],,,,
