&title=いぇす!ゆゆゆ☆ゆるゆり♪♪
&artist=七森中☆ごらく部
&first=0.1
&des=赤座灯里
&des_5=赤座灯里
&lv_5=13+
&inote_5=(182){4}E5,,{2}B3,
{16}B1,{4},{8},{16}8b,{2}1b,
{4}3/5,2,4/6,8,
3/5,1,{8}6,3b,3b,3b,
{4}2b/8b,7,6/4,1,
{8}3/5,5,2,2,{4}1b-5[8:1]/7b-3[8:1],1b/7b,
{8}4x,6,{4}2,{8}5,3,{4}8,
6/4h[8:1],7h[8:1],{8}1,5b,5b,5b,
{2}6b/4bh[8:3],{8}3b/7bh[4:1],{4},{8}6b/1bh[4:1],
,7b,7b,7b,{4}7bv4[8:1]/1bv4[8:1],1x/7x,
{8}6bx/2bx-5[8:1],2x,8,7,6-4[8:1],6,3,2,
1-5[8:1],1,7,7,4/6,8,3/5,1,
7-4[8:1],7,1,2,3-5[8:1],3,6,7,
8h[8:3],4b,4b,3b,2/8,5,7/1,4,
8-4[8:1],8,2-5[8:1],2,7-4[8:1],7,3-1[8:1],3,
8-4[8:1],8,2,2,3/5,1,4/6,8,
7/3,{16}6,4,{8}6,5/3,2/6,{16}1,7,{8}1,8/2h[4:1],
,8,7,6,{4}5b/1b-5b[8:1],1b/7b,
{8}6b,6b,{4}1b,7x/E6,2x/E4,
7x/E6,2x/E4,7x/E6,2x/E4,
{8}1b,1b,{4}5b,2x/B3,7x/B6,
2x/B3,7x/B6,2x/B3,7x/B6,
{8}2b,2b,{4}8b,2x/B3,7x/B6,
2x/E4,7x/E6,2x/E3,7x/E7,
1b,{8}3,6,8b/4b,{4},{8}7/3-7[8:1],
{4},{8}4-6[8:1],4,2-8[8:1],2,3-7b[8:1],3,
{4}1bx,{8}8x/6x,6,2/5,5h[4:1],,8,
1,2,3,5,{4}B3/E3/B2/B5/E5/B4,6bx/8bx>3[8:1],
7b/8b,6xh[8:1]/B3/B4,{8}6xh[8:1]/B1/E1,{4},{8}3xqq7[8:3]/4xq6[8:3],
{4},,{8},8x,{4}8xV64[8:1],
8b/2xh[4:5],6x-1-5[4:1],{2},{24}E8,
B7,{12}B6,,{24}B6,B5,{6}E5,{24}2x,3x,4x,5x,{12},{4}8b,
4xh[8:1],{8}8b,3b,{4}5xh[8:1],{8}1b,6b,
,2/8,2/8,1/7,{4}1v4[8:1]/7v4[8:1],7b/1b,
{8}5xpp4[2:1],{4},{8}2,{4}1>3[8:1],1,
{8}5pp4[2:1],{4},{8}2,{4}1-3[8:1],1,
6/5,{8}4,4,7,7,1,1,
2b/5b,6,7,8b/4b,,4,3,2h[2:1],
,B5,B6,B7,,3,2,1h[2:1],
,B6,B7,B8,,2,3,4>1[4:1],
,B7,B6,B5,,6xh[4:1],,1h[4:1],
{4},{16}6,1,{8}6,{16}3,5,3,5,{4}3,
{6}7b/4b,6h[6:1],1,2b/4b,7h[6:1],3,
{4}5b/1b,2b,{8}3b/6,7,{4}8/4,
{8}7b/1-5[8:1],1,6,7,{4}8<5[8:1],{8}2,2,
{4}4x/3x-1[8:1],8b,4x/3x-1[8:1],8b,
{8}7-4[8:1],7,1,2,{4}3>8[8:1],{8}6,6,
{4}1x/5x<8[8:1],3b,1x/5x<8[8:1],3b,
{8}2-6[8:1],2,1-5[8:1],1,8-4[8:1],8,7-3[8:1],7,
2-6[8:1],2,1-5[8:1],1,8-4[8:1],8,7-3[8:1],7,
{4}1bh[4:1],{8}7,6,{4}5<8[8:1],{8}1,1,
{4}2>5[8:1],{8}8,8,{4}2>5[8:1],{8}8,8,
7<4[8:1],7,3,2,{4}1-5-2[4:1],{8}6,6,
{4}7x-4[8:1],7b/1b,7x-4[8:1],7b/1b,
{8}3>8[8:1],3,7,6,{4}5pp4[4:1],{8}1,1h[8:7],
{4},{24}8x,7x,{6}6x,{24}7x,6x,{12}5x,,{24}6x,5x,{6}4x,
{4}5x/2-5[8:1],2x/8-4[8:1],8x/3-8[8:1],3x/6>7[4:1],
{2}6x/1x,{16}1,5,2,6,{4}3h[4:1],
8<3[16:3],8b/2b,8>5[16:3],8b/6b,
8b,{12}2,1,3,7,1,6,3,5,4,
{1}8bw4[2:1],
{8},3b,3b,3b,{4}2bv5[8:1]/8bv5[8:1],2b/8b,
{8}4x/6x,4x,7,1h[4:1],,6,,5/2h[4:1],
,6,6,4,4,7b,7b,7b,
{16}2,6,4,5,3,6,4,7,{8}1,1,2/6,6/2,
,1b,1b,1b,{4}1bv4b[8:1]/7bv4b[8:1],1b/7b,
{24}1bx/7bx,2x/6x,{12}3x/5x,,{8}2bx/6bx,4b/8b,
