&title=Future Downloader
&artist=Kobaryo
&first=0.08
&des=MeowHell(14.9)
&lv_5=14+
&des_5=MeowHell(14.9)
&inote_5=
(225){4},,,,{1}Cf/B7/B6/B3/B2/E7/E3/E6/E4/E5,
,,,7h[1:3],
,2h[1:1],
{2},6/3,
5/8h[1:1],3,
1h[2:1],6h[2:1],
4h[1:1],7,
6h[2:1],{4}2,3-8[4:1],
{2}5h[2:1],3h[1:1],
6,7,
6/1h[1:1],5h[1:1],
,3,
{1}4bz8[4:5],
{16},,,,,,,,,,,,,,,,4,
5,4,5,3,6,3,6,2,7,2,7,1,8,1,8,
{32}2,3,4,5,6,7,8,1,2,3,4,5,6,7,8,1,{4}2bxz6b[16:1],2bx,
4b/5b,{8}7-4[16:1],7,{4}2b-5[16:1]*-7[16:1],2b,
{16}3b,4,{8}3,{16}6b,5,6,5,{8}7b,{16}2,4,3b,3,3,3,
{4}3-8[16:1],6-3[16:1],2w6[16:1],2,
{2}8b-4[16:1]/4b-8[16:1],{16}2-4[16:1],3,2,3,{4}2,
{8}5b/6b,6,6/2-5[16:1],2,{4}7b-4[16:1]*-2[16:1],7b,
{16}6b,5,{8}7,3bx-5b[16:1],3bx-7b[16:1],{2}3bx-1b[16:1],
{8}6b/4b,6,{4}6/3-6[16:1],3,{16}1,1,1,1,
{1}1b>8[4:3]*pp8b[4:3],
{4},2-6[16:1]/1-7[16:1],2-4[16:1]/1-4[16:1],2/1,
{16}8x,7,6,5,1x,2,3,4,7x,6,5,4,3,2,1,8,
{4}7-3[16:1],7-4[16:1]*-5[16:1],7-2[16:1]*-1[16:1],7<4b[8:1],
7x,{16}3bx,3bx,3bx,3bx,{2}3bx-6b[16:1],
{16}1-5[16:1],8,{8}1,{4}7-3[16:1],7/2-5[16:1],2/6,
{8}3/4,4/3,{4}5/2h[16:7],{32}8x-4[8:1],7x,6x,5x,4x,3x,,1x,{4}8bx,
{16}1,2,3,4,5,6,3,4,5,6,7,8,2,3,4,5,
8,7,6,5,2,3,4,5,7,6,5,4,3,2,1,8,
{1}7b-3-1[4:27]*-3-5[4:27],
,,,,,,{4},E1/E5/B8/B1/B5/B4/Cfh[4:1],
{8},,,,3/7-5[16:1],
3,{4}3,{8}4/7-1[16:1],4,{4}4,
{8}3/7-5[16:1],3,{4}3,{8}2/7-1[16:1],2,{4}2,
{8}6/2-4[16:1],6,{4}7,{8}5/2-8[16:1],5,{4}4,
{8}6/2-4[16:1],6,{4}7,{8}5/2-8[16:1],5,{4}4,
{8}6,6,3,3,7/5,6,4/2,3,
{16}6,5,6,5,7,4,7,4,8,3,8,3,1,2,1,2,
{1}1q4[2:1],
{4}6/5,6-8[16:1]/5-3[16:1],{8},,,,5/4,
5/4,5,5/3,5,5,5/3-1[16:1],5,
5,5,5,5/1,5,5/3,5/3-8[16:1],5/3,
5,5,5/2,5/2,5/3,5/3,5/4,6/3,
{1}7bp4[2:1]/2bq5[2:1],
{8}8/1,8/1,8,8/2,8,8,8/2-4[16:1],8,
8,8,8,8/4,8,8/2,8/2,8/2,
{16}8/2,3,4,5,8,7,6,2,3,4,7,6,5,4,3,2,
{4}1bs5[4:1],{16},,,,,,,,3,4,3,4,
{8}2b,,,6x/5x,{16},,3,4,3,4,{8}3,
7x,{16}5,4,5,4,,,2,3,2,3,{8}2,2,
{16},,,,,,,,7,8,{8}7,{16}2,1,{8}2,
5x,{16}3,4,3,4,{8}3,{16}6-1[8:1],5,{8}7,,,2b,
,,3x/4x,{16},,6,5,6,5,{8}6,
8x,{16}4,5,4,5,,,7,6,7,6,{8}7,7x,
,6/3,5,4,6/3,4,5,6/3,
{16},,7x,6,7,6,{8}7,{16}2x,3,2,3,{4}2,
Cfh[4:15],E8,,E7,
,E6,,E5,
,E4,,E3,
,E2,{8},,,,6/5,
6/5,8/7,8/7,4/3,3/4,2/3,{16}6,5,
{8}7,7/1,2/4,2/4,5/7,7/5,8/6,{32}1bx,2bx,3bx,4bx,
,,,,{8}7,3/5,2,4/6,7,5/3,{16}4,2,
{2}4-7[16:1],{16}8,8,8,8,{4}8b,
{8}3/4,4/3,2/1,1/2,7/5,8,{16}4,6,4,6,
{8}3,3,2/1,4/5,8/7,5/4,6,{32}1x,2x,3x,4x,
,,,,{8}5x,6/4,5/7,{24}8bx/6bx,7x/5bx,6x/4bx,5x/3bx,4x/2bx,3x,2x,1x,8x,7x,6x,5x,
{1}4xz8[2:1]*s8[2:1],
{16}3,4,3,4,2,4,3,4,3,4,3,4,{8}1,1,
{16}6,5,6,5,7,5,6,5,6,5,6,5,{8}8,8,
{16}4,5,4,5,3,5,4,5,4,5,4,5,2,5,4,5,
{2}4b-2[16:1],{16}1,1,1,1,{4}1b,
{16}8,1,8,1,8,1,8,1,7,2,8,1,8,1,8,1,
8,2,8,1,8,1,8,1,7,1,8,1,7,2,8,1,
{4}8bx,4b/3b,{8}5b/6b,7b/4b,8b/3b,2b/1b,
{1}5bx-8b[2:1]/4bx-1b[2:1],
Cf/E1/B8/B7/B1/B2/E5/E7/E3,
,,{4},,,{8},{16}E7,
B6,
{1}B5,
,,,7xqq8-4[4:27]/1xpp8-4[4:27],
,,,,,,,{8}7b-3b[16:1]/1b-5b[16:1],
,,,,,,1b/8b-4b[16:1],
,8b/3b-7b[16:1],,3b/5bq1[8:3],,,,,{1}E5/E3/E4f/B3h[1:1]/B4h[1:1],
7xpp8[2:1],
{8}2b-6b[16:1]/8b-4b[16:1],,,,,,,8b/1b-5b[16:1],
,1b/6b-2b[16:1],,6b/4bp8[8:3],,,,,{2}E7/E6/B6f,
{8}A2/B2f/E2/E3/B1/A1/D2,,,E7f/B7/A7/A6/B6/E6,
,E4f/B4/B3/C/E5/A4,,B1f/E1/A1/E2/B8/B2/A8/D1,,,{4}5bpp1[2:7],
,,,,,,,,{1}2pp5[4:5],
{4},,,3/7,
{8}5/4,6,4/3,7,4/2,8,5/1,2,
{16}6,7,8,1,4,3,2,1,5,6,7,8,1,2,3,4,
{1}5h[2:1]/1h[2:1],
Ch[2:1]/B6h[2:1]/B7h[2:1]/B8h[2:1]/B1h[2:1]/B2h[2:1]/B3h[2:1]/B4h[2:1]/B5h[2:1],
{32}E8,B7,B6,E6,,,,,E4,B3,B2,E2,,,,,A8,E8,E7,A6,,,,,A4,E4,E3,A2,,,,,E7,
B6,B5,E5,,,,,E3,B2,B1,E1,,,,,A7,E7,E6,A5,,,,,A3,E3,E2,A1,,,,,E3,
B3,B4,E5,,,,,E7,B7,B8,E1,,,,,A2,E3,E4,A4,,,,,A6,E7,E8,A8,,,,,{2}4q5[16:9],
1s5[16:1],
8bw4b[16:1],6bw2b[16:1],
4bw8b[16:1]*-8[16:1],2bw6b[16:1]*-6[16:1],
{16}8b,7,6,5,1b,2,3,4,7b,6,5,4,2b,3,4,5,
8b,7,6,5,{24}4bx,3,2,1,8,7,{32}6bx,5x,4x,3x,2x,1x,8x,7x,{64}6bx,D6,5bx,D5,4bx,D4,3bx,D3,2bx,D2,1bx,D1,8bx,D8,7bx,D7,
{4}6bx/Cf,8x-6[16:1]/1x-5[16:1],1x-3[16:1]/8x-4[16:1],1x-5[16:1]/8x-6[16:1],
8bx/1bx-3[16:1],{8}8bx/1x-5[16:1],8bx,8bx/1x-3[16:1],8bx,8bx/1x,8bx,
{4}1x-4b[16:1]/8bx-5[16:1],8x<6b[16:1]/1bx>3[16:1],8bxz4[16:1]/1xs5b[16:1],8x/1bx,
{16}7x/3x,6x/2x,5x/1x,4x/8x,{4}7bx-2[16:1]/3bx-6[16:1],7x/3x,5x/1bxs5[8:1],
{8}6bx/1bx,7bx,{4}8bx-4[16:1],3x<5[16:1]/8x-2[16:1],3x-7[16:1]/8x-6b[16:1],
3x-1b[16:1]/8bx-4[16:1],8x-6b[16:1]/3bx-6[16:1],{32}3x/8bx>4[8:1],,,,,,,,,,,,,5x,6x,7x,
{4}8bx-5[16:1]*-3[16:1],8bx,{8}2bx/6bx,5bx/3bx,{16}4bx,4bx,4bx,4bx,
{1}4bx>5b[2:1],
{16}7bx/2bx,6x,5x,4x,3x/8bx,4x,5x,6x,1bx/7x,6x,5x,4x,3x/8bx,4x/1x,5x/2x,6x/3x,
7bx/4bx,8x,1x,2x,3x/5bx,2x,1x,8x,4bx/7x,8x,1x,2x,3x/6bx,2x/5x,1x/4x,8x/3x,
7x/2bx,6x,5x,4x,3x/7bx,2x,1x,8x,7x/4bx,6x,5x,4x,3x/1bx,2x,1x,8x,
7bxh[4:1]/3bxh[4:1],,,,,6x/2x,5x/1x,8x/4x,{4}7x-2b[16:1]/3x-6b[16:1],3bx/7bx,
{32}1bx/5bxh[8:1],E1f,B8f,B7f,{8}E7f,{32}1bx/5bxh[8:1],E2f,B2f,B3f,{8}E4f,{32}1bx/5bxh[8:1],E1f,B8f,B7f,{8}E7f,{32}1bx/5bxh[8:1],E2f,B2f,B3f,{8}E4f,
{32}1bx/5bxh[8:1],E1f,B8f,B7f,{8}E7f,{32}1bx/5bxh[8:1],E2f,B2f,B3f,{8}E4f,{2}5bxh[4:1]/1bxh[16:3],
{16}7bx,6,5,4,3,2,6b,5,4,3,2,1,5b,6,7,8,
4b,3,2,1,6b,7,8,1,3b,2,1,8,7w3[1:7],6,5,4,
{1}7w3b[4:27],
,,,,,,{2},{4}8v5[16:1]/2v5[16:1],
2/8,
7b-5[16:1],7/2,{8}1/7-5[16:1],1,7,2,
7-5[16:1],3,7/3,3,7-3[8:1],3-5[16:1],{4}7,
2-4[16:1],2/7,{8}8/2-4[16:1],8,2,7,
2-4[16:1],6,2/6,6,{4}2-4[16:1],2,
{8}6/5,7,6/4,3,4/6,8,5/3,7,
{16}2,4,2,4,3,5,3,5,4,6,4,6,5,7,5,7,
{8}1b,,,,,,,5bh[8:1]/Cf,
,1bh[8:1]/Cf,,7bh[8:3]/Cfh[8:3],,,,,{4}8b<6-2[4:1],
2>4-8[4:1],{8},,,1<6[8:1]*>4[8:1],
,1w5[8:1],,1,,,2/4,3/5,
{4}4/6-8[16:1],{8}6-4[16:1],3,6-8[16:1],2-4[16:1],6,2,
,1-6[16:1]/5-2[16:1],,5/1,{16},,,,3,4,3,4,
{4}1b>3-7[4:1],7<5-1[4:1],{8},,,8>3[8:1]*<5[8:1],
,8w4[8:1],,8,,,7/5,6/4,
{4}5/3-1[16:1],{8}3-5[16:1],6,3>1[8:1],7<5[8:1],3pp7[4:3],7pp3[8:5],
,,,,,,,,{4}4/2b-6[16:1],
2/7,{8}8/1,8-4[16:1],,8/2p6[8:1],
,2/5p1[8:1],,5/3>4[8:3],,,,,{4}8x-5[16:1],
{8}8-3[8:1],4,8,4,6/2,1b-3[16:1]/5b-7[16:1],
,5b-1[16:1]/1b-5[16:1],,1b/5b<5[8:3],,,,,1x,
1x,6x,6x,2x,2x,5x,5x,
{16}3,4,3,4,2,5,2,5,1,6,1,6,8,7,8,7,
{4}8bw4[16:1],8x,{8}2bh[8:3],{32}8,7,6,5,{4}4h[8:1],
{8},B7f/B8/D8/A7/A8/E7/E1/E8,,E4f/E3/B3/B4/A4/A3/D4/E5,,,{4}1s5b[4:7],
{1}1b,
{16},,,,,,,,,,,,,,,,5b,
4,5,4,6b,4,6,4,7b,3,7,3,8b,2,8,2,
1b,1b,1b,1b,1b,1b,1b,1b,1bxp5b[16:1]*q5b[16:1],1bx,1bx,1bx,{8}1bx,,
{16}6,4,6,4,6,4,7b,3,7,3,6b,2,5b,2,5,2,
4b,2,4,2,4,2,6b,2,6,2,6,2,8b,1,8b,1,
7,1,7,1,7,1,6b,2,6,2,7b,3,8b,3,8b,3,
{2}1bs5b[16:1],{16}6bx,6bx,6bx,6bx,{4}6bx,
{16}5bx/7x,4x,3x,2x,6bx,5x,4x,3x,7bx,6x,5x,4x,8bx,7x,6x,5x,
{24}1bx,8x,7x,6x,5x,4x,3x,2x,1x,5bx,6x,7x,8x,1x,2x,3x,4x,5x,{32}1bx,8bx,7bx,6bx,5bx,4bx,{48}3bx,2bx,,{4}5bx-2b[16:1]/1bx-6b[16:1],
5bx/1bx,{16}2bx/6bx,3bx/7bx,4bx/8bx,5bx/1bx,2bx<6b[8:1]/6bx>2b[8:1],3bx>7b[8:1]/7bx<3b[8:1],4bx>8b[8:1]/8bx<4b[8:1],5bx>1b[8:1]/1bx<5b[8:1],
,,,,,,,,,,,,,,,,{1}Cf/D1/D5/A5/A7/D8/A8/A1/D2/A2/E3/A3/D4/A4/D6/E2/A6/E7/E8/E1/B1/B2/B3/E4/B4/E5/B5/E6/B6/B7/B8/D7/D3,
E
