&title=海神寓拝
&artist= sasakure.‌UK
&first=2.14
&des=0mg怎么撞了
&lv_6=12+
&inote_6=(100)
{8}2h[8:3],
{16}3,4,5,,6h[8:3],,5,,4,,3h[8:9],,5,,4,,6,,5,,4,,7,,6,,5,,
{32}4,3,4,,2,,4,,3,,5,,
{16}4b-6[12:1],,5,,1,,1-3[12:1],,4,,1,4-6[12:1],
4,,5,,3,2-4[12:1],2,,7,,8,,8-2[12:1],,3,,8,,5V31[6:1],,6,,7,,
8-6[12:1],,7-5[12:1],,8,1-3[12:1],2,2-4[12:1],,,,,
{16}5b-3[12:1],,4,,8,,8-6[12:1],,5,,8,5-3[12:1],
5,,4,,6,7-5[12:1],7,,2,,1,,1-7[12:1],,6,,1,,4V68[6:1],,,3,4q5[2:1],,,,,,,,,,
{4},
{16}3b/7b,,4,,6,,5,,8,,2,,4/3h[16:3],,,
{32}6,4,
{16}6,3,7,,5,,46,,
{24}8<5[2:1],1,2,,,,
{2},
{16}3,4,2,4,3,,6,5,7,5,6,,
{16}6/2,,5,,3,,4,,1,,7,,5/6h[16:3],,,
{32}3,4,
{16}3,5,3,,4,,53,,
{24}1>4[2:1],8,7,,,,
{2},
{16}6,5,6,7,5,,24,3,5,4,75,6,
1,7,1,8,2h,8,1,7,1,8,3h,8,2,7,2,8h,3,8,2h,7,3,6h,4,5,
2,8,2,7,1h,7,2,8,2,6,1h,6,2,7,2,6,1h,6,2h,7,3,6,4h,5,
3h,4,3,6h,5,6,3,4,3,7h,5,7,2,4,2,6,5h,6,3h,4,2,5,1h,6,
1,8,7,1,8h,7,1,8,7,1,8h,7,1,8,7,1,8h,7,16,2,5,3,47,6,
5h[8:1],,6,1,7,1,7/3h[8:1],,4,1,7,1,
4h[8:1]/2,,3,8,2,8,2/6h[8:1],,5,8,2,8,
7/5h[8:1],,6,1,7,1,7/3h[8:1],,4,1,7,1,
4h[8:1]/2,,3,8,2,8,2/6,3,5,2,4,3,
4h[8:1],,3,8,2,8,2/6h[8:1],,5,8,2,8,
5h[8:1]/7,,6,1,7,1,7/3h[8:1],,
4<7[12:1],1,6,1,4b>1[12:1],,3,3,4b/7-4[12:1],,6,6,
7b/2<7[12:1],,1,1,2b/5>2[12:1],,6,6,5b,7,1,8,2b/8b,28,37,37,
4b-2[12:1]/6,,7-5[12:1],5,8-4[12:1],,,,6,,2,,1,2,7-5[12:1],,4-8[12:1],5,2-4[12:1],,
,,2,,
7-5[12:1],,2-4[12:1],6,4-8[12:1],,,,6,,7,,1,2,7-5[12:1],,4-8[12:1],5,2-4[12:1],,
,,2,,
5-7[12:1],,2-4[12:1],4,1-5[12:1],,,,3,,7,,8,7,2-4[12:1],,5-1[12:1],4,7-5[12:1],,
,,7,,2bV48[4:1],,5-7[8:1],,,,,,,,,,,,,
{1}2-7[4:1]/6-3[4:1],
{4},
{16},
4,,4h[16:3],,,,6h[4:1],,5,,5,,3,,3h[16:3],,,,6h[4:1],,5,,5,,
4,,4h[16:3],,,,6h[4:1],,5,,4,,37,,2h[16:3]/6,,,,4,,3,,3,,
53,,6h[16:3],,,,3h[4:1],,4,,4,,64,,7h[16:3],,,,3h[4:1],,4,,4,,
53,,4h[16:3],,,,3h[4:1],,4,,5,,63,,7>2[4:1]/2-5[4:1],,,,,,
{4},
{16}3,2,1-5[12:1],6,5,4,1,8,7-3[12:1],3,2,1,7,8,
1-5[12:1],4,5,6,1,8,7<4[12:1],4,3,2,7,8,1<6[12:1],2,3,4,1,2,
3>8[12:1],4,5,6,3,4,5-2[12:1],6,7-4[12:1],8,1-6[12:1],,,,,,
4>2[12:1],3,5,6,7,8,1>4[12:1],2,8,7,6,5,5<7[12:1],6,4,3,2,1,8<5[12:1],7,1,2,3,4,
4>2[12:1],3,5,6,7,8,1,8,7-4[12:1],6,5-8[12:1],3,2-6[12:1],,,,,,
{24}8,7,6,
{16}53,2,1,8,
{16}6,7,8-4[12:1],3,4b,5,8b,1,2b-6[12:1],6,7b,8,2,1,
8-4[12:1],5,4,3,8b,1,2b>5[12:1],5,6b,7,2b,1,8>3[12:1],7,6,5,8,7,
6<1[12:1],5,4,3,62,,
{24}4-7[12:1],3,2,1/8-3[12:1],7,6,4-1[12:1],,,,,,,,,
{16}6b,7h[16:1]/3,
{24}3,4,5,68,,,
{16}3b,2h[16:1]/6,
{24}6,5,4,31,,,
{16}6b,8h[16:1]/2,
{24}2,3,4,57,,,
{16}3b,1h[16:1]/7,
{24}7,6,5,42,,,
{16}1b,4,2,5,3,6,4/8b,4,7,3,6,2,1b/6,5,2b,7,3b,1,
3h[16:1],5h[16:1],4h[16:1],6h[16:1],5h[16:1],7qq5[16:41],
{1}3pp5[2:5],,,
{8}3,4,5,6,5,4,2,3,4,7,6,5,34,25,25,
{24}34,,,
{8}26,26,65,74,74,65,73,73,
{16}7,5,6-8[12:1],3,5-1[12:1],4,6-4[12:1],,5,,6,,2,2,
5-7[12:1],4,6,3,53,,2-5[12:1],8,1,8,2,,6<1[12:1],5,7,5,6,,
3-1[12:1],5,4-8[12:1],,5-7[12:1],,4-2[12:1],,5-1[12:1],,6b-8[12:1],,5b,,6b,,
2b-5[12:1],4,3,6,6,6,7b-3[12:1],5,6,2,2,2,
1b-5[12:1],4,2,7,7,7,8b-4[12:1],5,7,2,2,2,
1b-5[12:1],6,5,7,1,8,8b-4[12:1],3,5,2,8,1,
1b-6[12:1],7,3b-8[12:1],4,5b-2[12:1],,7b-4[12:1],,,,,,2bp4[1:1]/6q4[1:1],
